<?xml version="1.0" standalone="no"?>
<!DOCTYPE svg PUBLIC "-//W3C//DTD SVG 1.1//EN" "http://www.w3.org/Graphics/SVG/1.1/DTD/svg11.dtd">
<svg xmlns="http://www.w3.org/2000/svg">
<defs >
<font id="CutiveMono" horiz-adv-x="1240" ><font-face
    font-family="Cutive Mono"
    units-per-em="2048"
    panose-1="0 0 5 0 0 0 0 0 0 0"
    ascent="1697"
    descent="-558"
    alphabetic="0" />
<glyph unicode=" " glyph-name="space" />
<glyph unicode="!" glyph-name="exclam" d="M590 1187T573 1169T556 1103Q556 1025 561 944T577 752Q588 618 593 541T598 380Q598 361 604 353T622 344Q634 344 640 352T646 380Q646 464 651 547T666 753Q676 874 681 950T686 1103Q686 1150 669 1168T622 1187Q590
1187 573 1169ZM722 136T693 164T621 193Q578 193 549 165T519 93Q519 50 548 21T621 -9Q664 -9 693 20T722 93Q722 136 693 164Z" />
<glyph unicode="&quot;" glyph-name="quotedbl" d="M569 1122Q569 1145 552 1158T511 1172Q486 1172 469 1158T454 1117L486 721Q487 711 494 706T511 701Q521 701 527 706T535 721L569 1116V1122ZM786 1122Q786 1145 769 1158T728 1172Q703 1172 686 1158T671
1117L703 721Q704 711 711 706T728 701Q738 701 744 706T752 721L786 1116V1122Z" />
<glyph unicode="#" glyph-name="numbersign" d="M636 -123T647 -116T662 -94L784 385H959Q974 385 982 397T990 428Q990 445 982 457T959 470H805L861 689H1002Q1016 689 1024 701T1032 731Q1032 748 1024 761T1001 774H882L1008 1270Q1009 1272 1009 1277Q1009
1291 997 1299T968 1308Q954 1308 944 1302T930 1282L802 774H545L671 1270Q672 1272 672 1277Q672 1291 660 1299T631 1308Q617 1308 607 1302T593 1282L465 774H292Q278 774 270 762T261 732Q261 714 269 702T292 689H443L388 470H250Q236 470 228 458T219 428Q219
410 227 398T250 385H367L248 -86Q247 -89 247 -94Q247 -107 258 -115T284 -123Q299 -123 310 -116T325 -94L447 385H704L585 -86Q584 -89 584 -94Q584 -107 595 -115T621 -123Q636 -123 647 -116ZM524 689H780L725 470H468L524 689Z" />
<glyph unicode="$" glyph-name="dollar" d="M1057 146T959 67T707 -17V-141Q707 -153 697 -160T674 -167Q660 -167 650 -160T640 -141V-14Q561 -5 485 26T363 105Q363 47 351 15T316 -17Q290 -17 279 -1T268 57V371Q268 394 280 406T312 418Q331 418 344 405T358
369V250Q358 212 397 174T502 108T640 72V561L567 586Q473 618 414 650T319 738T282 881Q282 978 328 1047T452 1151T627 1187H640V1315Q640 1329 650 1336T674 1344Q687 1344 697 1336T707 1315V1183Q852 1166 917 1095Q917 1141 929 1164T969 1187Q990 1187 999
1171T1009 1117V864Q1009 838 996 825T963 811Q945 811 932 823T918 858V949Q911 1010 851 1048T707 1097V636L751 621Q856 585 921 546T1022 449T1057 308Q1057 146 959 67ZM640 659V1101Q517 1099 448 1041T378 886Q378 819 402 782T471 724T615 668L640 659ZM820
73T890 130T961 304Q961 366 935 407T861 475T731 530L707 538V69Q820 73 890 130Z" />
<glyph unicode="%" glyph-name="percent" d="M487 816T469 860T415 926Q478 915 535 915Q614 915 684 933T800 985L301 -183Q296 -194 296 -207Q296 -224 306 -233T331 -243Q343 -243 353 -236T370 -215L931 1104Q935 1113 935 1124Q935 1141 924 1151T898 1162Q878
1162 869 1143Q836 1072 770 1038T621 995T403 986H361Q296 986 244 941T163 821T133 657Q133 607 151 565T203 497T277 472Q338 472 386 516T462 629T489 767Q487 816 469 860ZM205 731T223 788T273 879T346 913Q379 913 398 871T417 777Q417 723 400 666T352
570T282 531Q245 531 225 568T205 661Q205 731 223 788ZM1099 359T1084 403T1038 474T964 501Q896 501 845 454T766 333T739 184Q739 99 774 43T878 -13Q945 -13 995 30T1071 147T1099 308Q1099 359 1084 403ZM813 238T831 297T883 395T957 435Q992 435 1009 397T1026
301Q1026 241 1008 181T958 83T887 44Q850 44 832 83T813 181Q813 238 831 297Z" />
<glyph unicode="&amp;" glyph-name="ampersand" d="M1061 -32T1070 -32Q1088 -32 1102 -19T1116 12Q1116 35 1092 51Q1066 69 1009 116T905 203Q970 296 1011 378T1057 544H1116Q1134 544 1143 556T1153 585Q1153 601 1144 613T1118 626H844Q828 626 820 615T812
587Q812 570 821 557T846 544H978Q976 500 956 443T907 334T849 254Q784 307 689 416T534 612L557 630Q619 679 659 718T730 812T760 933Q760 1008 730 1066T643 1156T511 1189Q440 1189 387 1157T304 1068T275 936Q275 863 315 790T419 632Q365 587 321 545T235
437T187 303Q186 292 186 272Q186 181 225 116T337 18T506 -16Q618 -16 699 23T847 135L910 82Q963 37 995 12T1051 -27Q1061 -32 1070 -32ZM438 743T405 814T371 944Q371 1000 393 1036T450 1090T521 1107Q583 1107 628 1064T673 931Q673 861 618 797T487 678Q438
743 405 814ZM524 489T626 369T797 192Q750 136 675 101T517 65Q414 65 348 118T282 282Q282 301 283 311Q288 372 349 445T469 564Q524 489 626 369Z" />
<glyph unicode="&apos;" glyph-name="quotesingle" d="M678 1122Q678 1145 661 1158T620 1172Q595 1172 578 1158T563 1117L595 721Q596 711 603 706T620 701Q630 701 636 706T644 721L678 1116V1122Z" />
<glyph unicode="(" glyph-name="parenleft" d="M705 -144T723 -144Q741 -144 755 -129T770 -98Q770 -90 764 -82Q672 26 625 198T578 570Q578 769 625 941T764 1222Q770 1230 770 1238Q770 1254 756 1269T723 1284Q705 1284 692 1267Q586 1127 535 956T484 570Q484
356 535 185T692 -127Q705 -144 723 -144Z" />
<glyph unicode=")" glyph-name="parenright" d="M549 1284T531 1284Q513 1284 499 1269T484 1238Q484 1230 490 1222Q582 1114 629 942T676 570Q676 371 629 199T490 -82Q484 -90 484 -98Q484 -114 498 -129T531 -144Q549 -144 562 -127Q668 13 719 184T770 570Q770
784 719 955T562 1267Q549 1284 531 1284Z" />
<glyph unicode="*" glyph-name="asterisk" d="M559 1092Q547 1113 519 1113Q489 1113 464 1094T438 1048Q438 1039 444 1027L563 872Q578 851 598 851Q616 851 629 862T642 891Q642 900 637 912L559 1092ZM678 912Q674 898 674 891Q674 874 686 863T717 851Q738
851 753 872L872 1027Q877 1037 877 1048Q877 1074 852 1093T796 1113Q767 1113 756 1092L678 912ZM559 751T570 762T581 791Q581 809 570 820T540 834L342 856Q319 856 306 837T292 791Q292 766 305 747T342 727L540 750Q559 751 570 762ZM758 832T747 821T736
791Q736 774 747 763T777 750L975 727Q998 727 1011 746T1024 791Q1024 817 1011 836T975 856L777 834Q758 832 747 821ZM637 672Q641 684 641 692Q641 709 628 720T597 731Q585 731 577 727T562 712L443 556Q437 544 437 536Q437 509 462 490T518 470Q546 470
559 492L637 672ZM755 712Q747 722 739 726T718 731Q700 731 688 720T675 692Q675 686 677 680T680 672L758 492Q762 482 773 476T798 470Q827 470 853 489T879 536Q879 544 873 556L755 712Z" />
<glyph unicode="+" glyph-name="plus" d="M669 804Q669 829 655 842T621 856Q601 856 587 843T573 804V538H316Q294 538 284 526T273 497Q273 479 283 468T316 456H573V195Q573 170 587 157T621 143Q641 143 655 156T669 195V456H924Q947 456 957 467T967 497Q967
514 957 526T924 538H669V804Z" />
<glyph unicode="," glyph-name="comma" d="M518 39T548 16T626 -8Q626 -49 593 -90T517 -162Q505 -171 505 -183Q505 -193 513 -201T533 -210Q540 -210 543 -208Q586 -186 629 -145T700 -50T728 59Q728 116 696 148T616 180Q577 180 548 155T518 85Q518 39 548 16Z" />
<glyph unicode="-" glyph-name="hyphen" d="M327 441T337 430T379 418H886Q916 418 926 429T937 459Q937 478 927 489T886 500H379Q348 500 338 489T327 459Q327 441 337 430Z" />
<glyph unicode="." glyph-name="period" d="M726 134T696 164T620 195Q575 195 545 165T514 89Q514 43 544 14T620 -16Q665 -16 695 14T726 89Q726 134 696 164Z" />
<glyph unicode="/" glyph-name="slash" d="M243 -212T257 -224T290 -237Q314 -237 327 -213L991 1113Q997 1125 997 1134Q997 1151 983 1162T951 1173Q939 1173 929 1168T914 1152L247 -178Q243 -186 243 -195Q243 -212 257 -224Z" />
<glyph unicode="0" glyph-name="zero" d="M232 429T276 292T408 69T619 -16Q741 -16 829 69T962 291T1008 584Q1008 740 963 878T830 1101T619 1187Q498 1187 410 1102T277 878T232 584Q232 429 276 292ZM328 717T361 836T460 1028T619 1101Q711 1101 777 1028T878
836T912 583Q912 449 879 332T779 142T619 69Q526 69 461 141T362 331T328 583Q328 717 361 836Z" />
<glyph unicode="1" glyph-name="one" d="M682 1177T674 1173L270 993Q246 983 246 958Q246 941 258 927T287 913Q296 913 304 917L639 1069V82H270Q250 82 239 70T228 42Q228 25 240 13T274 0H1074Q1093 0 1103 12T1114 41Q1114 57 1104 69T1075 82H735V1130Q735
1154 723 1165T694 1177Q682 1177 674 1173Z" />
<glyph unicode="2" glyph-name="two" d="M264 902T279 880T324 858Q344 858 355 876T372 924T386 1017Q388 1043 390 1055Q483 1101 597 1101Q723 1101 786 1058T849 907Q849 847 812 782T721 655T575 500Q475 399 415 331T314 186T272 37Q272 25 275 15T279 0H917Q941
0 956 13T971 50V258Q971 283 959 296T927 309Q908 309 892 297T875 264L863 82H367Q388 143 430 203T521 316T649 448Q748 548 806 614T905 758T945 914Q945 1050 855 1118T612 1187Q448 1187 356 1127T264 938Q264 902 279 880Z" />
<glyph unicode="3" glyph-name="three" d="M717 609T785 544T854 366Q854 281 817 214T710 108T547 69Q482 69 447 80T379 114Q357 128 341 134T301 141Q285 141 274 130T263 108Q263 78 304 49T411 2T544 -17Q657 -17 749 31T896 166T950 360Q950 453 912 524T801
635T625 675Q687 705 740 738T838 829T883 959Q883 1030 848 1081T752 1160T615 1187Q559 1187 486 1169T360 1116T307 1037Q307 1024 318 1014T348 1004Q376 1004 390 1012T422 1039Q440 1059 458 1071T514 1093T613 1102Q699 1102 743 1061T787 959Q787 908 760
869T688 799T563 720L496 679Q480 670 473 659T465 638Q465 620 475 611T503 601Q512 601 534 604Q589 609 602 609Q717 609 785 544Z" />
<glyph unicode="4" glyph-name="four" d="M971 0T978 10T985 34Q985 47 979 56T961 65H803V371H1003Q1021 371 1030 382T1040 410Q1040 427 1031 438T1005 449H803V1125Q803 1154 792 1166T764 1179Q752 1179 742 1175T728 1167L217 443Q207 430 207 415Q207 398
219 385T245 371H707V65H419Q408 65 402 56T395 34Q395 20 402 10T420 0H960Q971 0 978 10ZM707 449H322L707 1019V449Z" />
<glyph unicode="5" glyph-name="five" d="M1011 495T967 572T849 692T687 735Q625 735 563 712T444 642L479 1081Q479 1089 487 1089H857Q893 1089 913 1128T934 1227Q934 1243 921 1251T889 1260Q871 1260 862 1243T838 1171H514Q448 1171 413 1161T378 1111L358
529Q358 513 369 504T395 495Q407 495 416 500T430 517Q461 579 531 618T679 657Q743 657 796 628T882 537T915 381Q915 281 867 210T744 102T592 65Q536 65 480 80T377 130Q366 138 353 138Q337 138 325 126T313 98Q313 73 340 54Q389 20 450 2T579 -17Q699 -17
797 34T953 179T1011 396Q1011 495 967 572Z" />
<glyph unicode="6" glyph-name="six" d="M582 741T499 703T361 591Q386 766 487 919T721 1183Q733 1194 733 1207Q733 1224 719 1238T687 1253Q673 1253 659 1241Q474 1074 366 880T257 426Q257 220 355 102T648 -17Q760 -17 846 29T979 159T1027 357Q1027 470
984 557T860 692T668 741Q582 741 499 703ZM353 443T391 510T502 618T671 659Q759 659 817 617T903 505T931 354Q931 275 898 209T801 104T648 65Q547 65 481 105T384 213T353 364Q353 443 391 510Z" />
<glyph unicode="7" glyph-name="seven" d="M638 -7T651 7T665 46Q665 248 703 421T802 741T964 1081Q971 1094 971 1111Q971 1134 959 1152T928 1171H330Q305 1171 290 1157T274 1117V916Q274 891 288 877T321 863Q341 863 355 877T370 916V1085H864Q774 913 712
761T609 428T569 47Q569 22 584 8T619 -7Q638 -7 651 7Z" />
<glyph unicode="8" glyph-name="eight" d="M290 831T324 779T405 691T526 610L544 599Q462 551 406 511T305 409T260 274Q260 121 369 52T642 -17Q813 -17 917 51T1022 268Q1022 346 979 405T880 502T728 595Q808 650 853 688T934 783T970 913Q970 1050 875 1118T620
1187Q526 1187 451 1153T333 1054T290 897Q290 831 324 779ZM878 848T848 801T768 717T642 635L616 649Q530 697 485 728T411 802T382 906Q382 973 416 1017T507 1081T628 1101Q745 1101 811 1055T878 905Q878 848 848 801ZM356 340T400 392T498 482T626 560L673
535Q751 494 801 461T889 378T926 266Q926 69 648 69Q525 69 441 116T356 282Q356 340 400 392Z" />
<glyph unicode="9" glyph-name="nine" d="M695 429T778 467T916 579Q872 271 554 6Q542 -5 542 -18Q542 -35 556 -49T588 -64Q603 -64 616 -52Q738 58 824 168T965 421T1020 744Q1020 950 922 1068T629 1187Q517 1187 431 1141T298 1011T250 813Q250 700 293 613T417
478T609 429Q695 429 778 467ZM924 727T886 660T775 552T606 511Q518 511 460 553T374 665T346 816Q346 895 379 961T476 1066T629 1105Q730 1105 796 1065T893 957T924 806Q924 727 886 660Z" />
<glyph unicode=":" glyph-name="colon" d="M750 750T720 780T644 811Q599 811 569 781T539 705Q539 659 568 630T644 600Q689 600 719 630T750 705Q750 750 720 780ZM750 134T720 164T644 195Q599 195 569 165T539 89Q539 43 568 14T644 -16Q689 -16 719 14T750
89Q750 134 720 164Z" />
<glyph unicode=";" glyph-name="semicolon" d="M750 750T720 780T644 811Q599 811 569 781T539 705Q539 659 568 630T644 600Q689 600 719 630T750 705Q750 750 720 780ZM551 55T579 34T654 13Q654 -28 629 -54T557 -112Q549 -118 545 -126T540 -142Q540 -156
552 -167T581 -178Q595 -178 606 -172Q674 -137 715 -80T756 59Q756 116 724 148T644 180Q606 180 579 158T551 96Q551 55 579 34Z" />
<glyph unicode="&lt;" glyph-name="less" d="M974 132T981 132Q999 132 1012 148T1025 183Q1025 210 998 221L179 554L988 882Q1009 890 1009 914Q1009 933 996 950T965 968Q961 968 955 966L87 605Q75 600 68 585T61 550Q61 532 68 517T87 497L967 135Q974 132 981 132Z" />
<glyph unicode="=" glyph-name="equal" d="M320 689T308 676T296 644Q296 625 308 612T341 598H900Q921 598 933 611T945 644Q945 662 933 675T900 689H341Q320 689 308 676ZM320 347T308 334T296 302Q296 283 308 270T341 256H900Q921 256 933 269T945 302Q945
320 933 333T900 347H341Q320 347 308 334Z" />
<glyph unicode="&gt;" glyph-name="greater" d="M243 968T236 968Q218 968 205 952T192 917Q192 890 219 879L1038 546L229 218Q208 210 208 186Q208 167 221 150T252 132Q256 132 262 134L1130 495Q1142 500 1149 515T1156 550Q1156 568 1149 583T1130 603L250
965Q243 968 236 968Z" />
<glyph unicode="?" glyph-name="question" d="M492 1188T431 1162T335 1087T300 971Q300 936 312 914T349 891Q377 891 391 914T411 970T419 1056L421 1082Q459 1099 495 1105T570 1111Q636 1111 685 1086T760 1016T787 912Q787 894 784 874Q777 825 757 785T711
716T643 643Q598 598 572 566T527 491T509 393Q509 365 515 352T543 338Q562 338 568 351T575 394Q575 432 593 465T640 527T716 597Q776 649 814 689T878 784T905 906Q905 997 863 1060T745 1156T573 1188Q492 1188 431 1162ZM650 137T621 165T549 194Q506 194
477 165T447 93Q447 50 476 21T549 -9Q592 -9 621 21T650 94Q650 137 621 165Z" />
<glyph unicode="@" glyph-name="at" d="M814 1012T907 965T1053 828T1107 618Q1107 466 1069 368T926 269Q856 269 850 327Q850 337 851 342L880 642Q854 677 829 703T757 753T647 776Q577 776 524 739T443 632T414 466Q414 382 443 319T520 223T622 189Q672 189
718 218T799 304Q814 247 843 221T923 194Q1071 194 1138 302T1205 585Q1205 743 1140 859T958 1037T695 1099Q514 1099 375 1004T159 756T83 439Q83 292 148 165T341 -39T649 -116H651Q744 -116 820 -97T978 -26Q997 -14 997 7Q997 22 987 33T961 45Q948 45 938
40Q879 10 804 -11T648 -33Q501 -33 398 32T242 204T189 436Q189 578 252 711T432 928T699 1012Q814 1012 907 965ZM631 263Q569 263 535 319T500 460Q500 564 537 632T652 700Q711 700 742 684T784 636T795 550Q795 410 759 337T632 263H631Z" />
<glyph unicode="A" glyph-name="A" d="M462 0T475 12T489 43Q489 60 476 73T439 86H280L392 392H875L982 86H796Q773 86 760 74T747 44Q747 26 760 13T798 0H1164Q1187 0 1200 13T1214 44Q1214 61 1202 73T1166 86H1087L725 1106Q702 1171 644 1171H341Q318 1171
305 1158T292 1128Q292 1110 305 1098T342 1085H559L174 86H89Q66 86 53 73T40 43Q40 25 53 13T90 0H438Q462 0 475 12ZM646 1072L845 475H425L646 1072Z" />
<glyph unicode="B" glyph-name="B" d="M914 681T960 741T1007 889Q1007 1041 894 1106T592 1171H236Q213 1171 201 1159T188 1129Q188 1111 201 1098T237 1085H403V86H243Q220 86 207 73T193 43Q193 25 206 13T244 0H602Q827 0 965 85T1104 348Q1104 489 1032
566T843 660Q914 681 960 741ZM499 673V1085H605Q756 1085 838 1039T921 885Q921 813 880 765T773 695T629 673H499ZM499 86V597H629Q746 597 826 581T957 514T1008 363Q1008 214 902 150T605 86H499Z" />
<glyph unicode="C" glyph-name="C" d="M1146 360T1128 373T1089 387Q1059 387 1049 359Q1008 223 910 146T670 69Q551 69 450 132T289 316T228 600Q228 745 282 859T436 1037T671 1101Q760 1101 835 1067T960 970T1026 827Q1030 805 1043 793T1074 780Q1093 780
1106 792T1120 827V1120Q1120 1144 1106 1157T1071 1171Q1051 1171 1037 1158T1022 1121V1015Q995 1064 942 1103T817 1164T668 1187Q515 1187 393 1114T202 909T132 607Q132 420 201 279T393 60T669 -17Q806 -17 906 34T1066 165T1145 336Q1146 338 1146 343Q1146
360 1128 373Z" />
<glyph unicode="D" glyph-name="D" d="M157 1171Q134 1171 121 1158T107 1127Q107 1110 119 1098T155 1085H314V86H151Q128 86 115 73T101 43Q101 25 114 13T152 0H513Q793 0 938 141T1084 591Q1084 883 933 1027T515 1171H157ZM410 86V1085H534Q753 1085 870
957T988 591Q988 335 876 211T520 86H410Z" />
<glyph unicode="E" glyph-name="E" d="M837 805T826 818T799 832Q784 832 773 820T759 787L746 654H420V1085H1029L1043 841Q1044 823 1056 813T1085 803Q1101 803 1113 814T1125 847V1117Q1125 1142 1110 1156T1069 1171H191Q168 1171 155 1158T141 1127Q141
1110 153 1098T189 1085H324V85H154Q131 85 118 73T104 43Q104 26 117 13T155 0H1081Q1106 0 1121 14T1137 53V323Q1137 348 1125 361T1095 375Q1078 375 1065 364T1051 336L1035 85H420V577H746L759 429Q760 409 772 398T799 386Q815 386 826 399T837 437V779Q837
805 826 818Z" />
<glyph unicode="F" glyph-name="F" d="M848 805T837 818T810 832Q795 832 784 820T770 787L757 654H420V1085H1042L1056 841Q1057 823 1069 813T1098 803Q1114 803 1126 814T1138 847V1117Q1138 1142 1123 1156T1082 1171H191Q168 1171 155 1158T141 1127Q141
1110 153 1098T189 1085H324V85H154Q131 85 118 73T104 43Q104 26 117 13T155 0H771Q792 0 804 12T816 43Q816 60 804 72T770 85H420V577H757L770 429Q771 409 783 398T810 386Q826 386 837 399T848 437V779Q848 805 837 818Z" />
<glyph unicode="G" glyph-name="G" d="M1168 510T1181 523T1195 554Q1195 571 1182 583T1146 596H862Q839 596 826 584T813 554Q813 536 826 523T863 510H987V332Q949 213 853 141T607 69Q488 69 392 132T241 316T185 600Q185 747 234 860T378 1037T608 1101Q697
1101 772 1067T897 970T963 827Q967 805 980 793T1011 780Q1030 780 1043 792T1057 827V1120Q1057 1144 1043 1157T1008 1171Q988 1171 974 1158T959 1121V1015Q932 1064 879 1103T754 1164T605 1187Q453 1187 336 1115T154 911T89 607Q89 419 154 278T336 60T606
-17Q694 -17 772 7T906 75T987 175V51Q987 23 1001 8T1036 -8Q1055 -8 1069 7T1083 49V510H1144Q1168 510 1181 523Z" />
<glyph unicode="H" glyph-name="H" d="M482 0T495 13T509 46Q509 62 497 74T461 86H361V558H901V86H801Q778 86 766 74T753 44Q753 26 766 13T803 0H1097Q1120 0 1133 13T1147 43Q1147 61 1134 73T1097 86H997V1085H1097Q1121 1085 1134 1098T1147 1130Q1147 1146
1134 1158T1097 1171H803Q780 1171 767 1158T753 1127Q753 1110 765 1098T801 1085H901V638H361V1085H461Q484 1085 496 1097T509 1127Q509 1145 496 1158T459 1171H157Q134 1171 121 1158T107 1128Q107 1110 120 1098T157 1085H265V86H141Q118 86 106 74T93 44Q93
26 106 13T143 0H459Q482 0 495 13Z" />
<glyph unicode="I" glyph-name="I" d="M1019 0T1032 12T1045 43Q1045 60 1032 73T996 86H710V1085H996Q1019 1085 1032 1097T1045 1127Q1045 1145 1032 1158T995 1171H310Q286 1171 273 1158T259 1127Q259 1110 272 1098T309 1085H614V86H309Q286 86 273 73T259
43Q259 25 272 13T310 0H995Q1019 0 1032 12Z" />
<glyph unicode="J" glyph-name="J" d="M1026 1085Q1049 1085 1062 1098T1075 1128Q1075 1146 1062 1158T1025 1171H410Q387 1171 374 1158T361 1127Q361 1110 373 1098T409 1085H759V314Q759 229 716 174T604 94T460 68Q401 68 349 82T266 123T234 182V283Q234
304 220 316T187 328Q168 328 153 316T138 283V171Q138 116 181 74T296 10T451 -13Q554 -13 646 22T796 132T855 317V1085H1026Z" />
<glyph unicode="K" glyph-name="K" d="M609 0T622 12T635 43Q635 60 622 73T586 86H342V465L527 621L1005 86H839Q816 86 803 73T790 43Q790 25 803 13T840 0H1258Q1281 0 1294 12T1307 43Q1307 60 1295 73T1259 86H1122L601 676L1039 1084H1177Q1200 1084 1212
1096T1225 1127Q1225 1145 1212 1158T1176 1171H814Q791 1171 778 1159T764 1131Q764 1116 777 1105T813 1094H902Q921 1094 921 1088Q921 1085 914 1078L338 558V1084H531Q554 1084 566 1096T579 1126Q579 1144 566 1157T529 1171H84Q60 1171 47 1158T33 1127Q33
1109 46 1097T83 1084H242V86H83Q60 86 47 73T33 43Q33 25 46 13T84 0H585Q609 0 622 12Z" />
<glyph unicode="L" glyph-name="L" d="M144 1171T131 1158T117 1127Q117 1110 130 1098T166 1085H393V86H124Q101 86 88 73T74 43Q74 25 87 13T125 0H1020Q1051 0 1069 18T1092 66L1122 387V393Q1122 416 1107 429T1071 442Q1052 442 1038 431T1021 399L987 123Q985
102 975 95T946 86H489V1085H641Q664 1085 677 1097T691 1127Q691 1145 678 1158T640 1171H167Q144 1171 131 1158Z" />
<glyph unicode="M" glyph-name="M" d="M1193 0T1206 13T1220 44Q1220 61 1208 73T1172 86H1044V1085H1157Q1180 1085 1193 1097T1207 1127Q1207 1145 1194 1158T1156 1171H964Q948 1171 936 1163T919 1141L629 473L328 1136Q312 1171 282 1171H84Q61 1171 48 1158T34
1127Q34 1110 47 1098T83 1085H202V86H69Q46 86 33 73T20 43Q20 25 33 13T70 0H417Q441 0 454 13T468 44Q468 61 455 73T418 86H298V978L565 385Q574 363 590 353T625 342Q645 342 663 354T691 390L948 982V86H815Q792 86 779 74T766 44Q766 26 779 13T817 0H1170Q1193
0 1206 13Z" />
<glyph unicode="N" glyph-name="N" d="M285 86H159Q136 86 123 73T110 43Q110 25 123 13T160 0H518Q542 0 555 12T568 43Q568 60 555 73T519 86H381V1084L934 22Q943 4 958 -6T990 -16Q1011 -16 1025 0T1039 47V1085H1135Q1158 1085 1170 1097T1183 1127Q1183
1145 1170 1158T1133 1171H796Q772 1171 759 1158T745 1127Q745 1110 758 1098T794 1085H943V194L457 1147Q451 1160 442 1165T417 1171H130Q107 1171 94 1158T80 1127Q80 1110 93 1098T129 1085H285V86Z" />
<glyph unicode="O" glyph-name="O" d="M1132 738T1074 876T899 1101T620 1187Q457 1187 341 1101T167 877T108 582Q108 426 166 289T341 68T620 -17Q783 -17 899 67T1073 289T1132 582Q1132 738 1074 876ZM1036 449T989 332T848 142T620 69Q486 69 392 141T251
331T204 582Q204 717 252 835T394 1027T620 1101Q752 1101 846 1028T988 836T1036 582Q1036 449 989 332Z" />
<glyph unicode="P" glyph-name="P" d="M188 1171Q165 1171 152 1158T138 1127Q138 1110 151 1098T187 1085H346V86H173Q150 86 137 73T123 43Q123 25 136 13T174 0H770Q794 0 807 12T820 43Q820 60 807 73T771 86H442V527H558Q721 527 825 545T999 633T1068 847Q1068
991 995 1061T812 1151T532 1171H188ZM442 607V1085H552Q683 1085 767 1073T911 1008T972 843Q972 737 922 686T794 621T594 607H442Z" />
<glyph unicode="Q" glyph-name="Q" d="M521 -24Q599 -119 640 -161T730 -224T854 -246Q894 -246 956 -225T1054 -169Q1077 -155 1077 -130Q1077 -113 1065 -100T1037 -86Q1021 -86 1008 -95Q908 -162 836 -162Q774 -162 722 -108L636 -17Q794 -13 906 72T1075
293T1132 582Q1132 738 1074 876T899 1101T620 1187Q457 1187 341 1101T167 877T108 582Q108 445 153 322T288 111T506 -5L521 -24ZM1036 449T989 332T848 142T620 69Q486 69 392 141T251 331T204 582Q204 717 252 835T394 1027T620 1101Q752 1101 846 1028T988
836T1036 582Q1036 449 989 332Z" />
<glyph unicode="R" glyph-name="R" d="M429 82V542H604Q639 542 696 547T764 556L944 82H893Q870 82 857 70T844 42Q844 25 857 13T895 0H1130Q1163 0 1178 12T1193 42Q1193 59 1179 70T1129 82H1045L841 578Q930 611 988 678T1047 853Q1047 983 988 1052T823
1146T557 1171H237Q213 1171 200 1158T186 1127Q186 1110 199 1098T236 1085H333V82H208Q184 82 171 70T158 41Q158 25 171 13T209 0H608Q632 0 645 12T658 41Q658 58 645 70T609 82H429ZM556 1085Q707 1085 790 1067T912 998T951 846Q951 751 901 702T764 636T536
619H429V1085H556Z" />
<glyph unicode="S" glyph-name="S" d="M918 858Q918 836 931 824T963 811Q983 811 996 824T1009 864V1117Q1009 1155 1000 1171T969 1187Q941 1187 929 1164T917 1095Q870 1147 793 1167T627 1187Q531 1187 453 1152T328 1047T282 881Q282 794 318 739T414 651T567
586L731 530Q812 502 860 475T935 407T961 304Q961 183 886 126T692 69Q611 69 534 96T407 165T358 250V369Q358 392 345 405T312 418Q293 418 281 406T268 371V57Q268 15 279 -1T316 -17Q339 -17 351 15T363 105Q416 49 510 16T689 -17Q791 -17 874 16T1007 122T1057
308Q1057 391 1022 448T922 545T751 621L615 668Q515 703 471 724T403 782T378 886Q378 986 450 1043T650 1101Q712 1101 771 1084T871 1033T918 949V858Z" />
<glyph unicode="T" glyph-name="T" d="M570 1085V86H328Q305 86 292 74T278 44Q278 26 292 13T330 0H906Q930 0 943 13T957 44Q957 61 944 73T908 86H666V1085H1018L1028 814Q1029 794 1042 783T1072 771Q1091 771 1104 784T1118 823V1117Q1118 1144 1109 1157T1078
1171H162Q139 1171 130 1158T120 1117V823Q120 798 135 784T169 769Q185 769 197 780T210 814L222 1085H570Z" />
<glyph unicode="U" glyph-name="U" d="M1056 1085H1174Q1207 1085 1225 1097T1243 1127Q1243 1145 1225 1158T1173 1171H840Q816 1171 803 1158T789 1127Q789 1110 802 1098T839 1085H960V411Q960 311 922 234T815 113T654 69Q505 69 425 159T345 413V1085H507Q530
1085 543 1097T556 1127Q556 1145 543 1158T506 1171H105Q82 1171 69 1158T55 1127Q55 1110 68 1098T104 1085H249V413Q249 280 300 183T442 35T654 -17Q772 -17 863 37T1005 188T1056 411V1085Z" />
<glyph unicode="V" glyph-name="V" d="M803 1171T790 1159T776 1128Q776 1111 789 1098T826 1085H946L671 119L368 1085H499Q522 1085 535 1098T548 1128Q548 1146 535 1158T498 1171H158Q135 1171 122 1158T108 1127Q108 1110 120 1098T156 1085H260L602 20Q611
-7 626 -21T666 -36Q691 -36 703 -24T730 20L1046 1085H1132Q1155 1085 1168 1098T1181 1128Q1181 1146 1168 1158T1131 1171H827Q803 1171 790 1159Z" />
<glyph unicode="W" glyph-name="W" d="M858 196L689 850Q685 867 673 876T646 886Q631 886 618 877T601 850L424 199L286 1085H400Q424 1085 437 1098T451 1129Q451 1146 438 1158T402 1171H100Q77 1171 64 1159T51 1129Q51 1111 64 1098T101 1085H185L351 35Q354
11 369 -3T403 -17Q420 -17 434 -6T454 27L641 701L811 35Q817 11 832 -3T864 -17Q884 -17 898 -6T916 27L1080 1085H1150Q1174 1085 1187 1098T1201 1129Q1201 1146 1188 1158T1151 1171H872Q849 1171 836 1159T823 1129Q823 1111 836 1098T873 1085H980L858 196Z"
/>
<glyph unicode="X" glyph-name="X" d="M765 1171T765 1127Q765 1085 804 1085H905L628 676L353 1085H501Q540 1085 540 1127Q540 1171 500 1171H164Q124 1171 124 1127Q124 1085 163 1085H245L574 596L226 82H141Q102 82 102 41Q102 0 142 0H490Q530 0 530 41Q530
82 491 82H342L632 510L921 82H765Q742 82 729 70T716 41Q716 24 729 12T766 0H1098Q1139 0 1139 42Q1139 82 1100 82H1027L686 589L1022 1085H1095Q1134 1085 1134 1127Q1134 1171 1094 1171H805Q765 1171 765 1127Z" />
<glyph unicode="Y" glyph-name="Y" d="M781 1171T767 1160T753 1133Q753 1118 766 1107T803 1095H914L646 633L370 1095H506Q529 1095 542 1106T556 1133Q556 1148 543 1159T505 1171H175Q152 1171 138 1160T124 1133Q124 1118 137 1107T174 1095H258L593 553V86H332Q309
86 296 74T282 44Q282 26 296 13T334 0H919Q942 0 955 13T969 44Q969 61 957 73T921 86H689V548L1012 1095H1067Q1090 1095 1103 1106T1116 1132Q1116 1148 1103 1159T1065 1171H804Q781 1171 767 1160Z" />
<glyph unicode="Z" glyph-name="Z" d="M323 757T336 767T350 797L366 1085H880L247 95Q245 91 232 70T219 31Q219 0 271 0H993Q1016 0 1030 14T1044 53L1034 385Q1034 410 1022 422T993 435Q974 435 959 421T942 384V86H369L991 1081Q1001 1097 1001 1116Q1001
1138 988 1154T952 1171H322Q287 1171 271 1156T254 1116V806Q254 783 269 770T305 757Q323 757 336 767Z" />
<glyph unicode="[" glyph-name="bracketleft" d="M515 1331T515 1270V-90Q515 -117 529 -132T570 -148H802Q815 -148 822 -136T830 -106Q830 -89 823 -77T802 -64H611V1247H802Q815 1247 822 1259T830 1289Q830 1306 823 1318T802 1331H570Q515 1331 515 1270Z" />
<glyph unicode="\" glyph-name="backslash" d="M319 1162T310 1167T288 1173Q270 1173 256 1162T242 1134Q242 1123 247 1113L911 -213Q924 -237 949 -237Q967 -237 981 -225T995 -195Q995 -186 991 -178L324 1152Q319 1162 310 1167Z" />
<glyph unicode="]" glyph-name="bracketright" d="M739 -148T739 -87V1273Q739 1300 725 1315T684 1331H452Q439 1331 432 1319T424 1289Q424 1272 431 1260T452 1247H643V-64H452Q439 -64 432 -76T424 -106Q424 -123 431 -135T452 -148H684Q739 -148 739 -87Z" />
<glyph unicode="^" glyph-name="asciicircum" d="M680 969Q667 997 654 1007T625 1018Q592 1018 566 964L326 477Q316 458 316 436Q316 416 327 404T356 391Q370 391 383 400T405 426L627 859L831 422Q838 409 849 400T876 391Q895 391 909 404T924 436Q924 444
918 460L680 969Z" />
<glyph unicode="_" glyph-name="underscore" d="M220 91T208 78T196 46Q196 27 208 14T241 0H1000Q1021 0 1033 13T1045 46Q1045 64 1033 77T1000 91H241Q220 91 208 78Z" />
<glyph unicode="`" glyph-name="grave" d="M250 1131T92 1267Q81 1277 64 1277Q42 1277 24 1259T6 1220Q6 1202 25 1189L104 1139Q289 1023 365 979Q369 975 377 975Q390 975 400 986T410 1010Q410 1025 400 1031Q250 1131 92 1267Z" />
<glyph unicode="a" glyph-name="a" d="M814 470L741 465Q578 454 482 437T319 367T253 210Q253 107 316 46T491 -16Q595 -16 683 21T821 113Q833 42 868 18T954 -7Q999 -7 1040 12T1114 66Q1124 76 1124 91Q1124 107 1113 120T1087 133Q1074 133 1063 121Q1046
103 1017 88T962 72Q938 72 924 84T910 132V444Q910 566 884 646T793 770T612 813Q510 813 431 786T308 711T264 603Q264 571 279 551T324 531Q358 531 372 570T390 686Q443 710 495 720T611 731Q723 731 768 669T814 490V470ZM760 132T676 99T502 65Q433 65 392
99T350 210Q350 280 398 316T527 366T773 397L814 401V189Q760 132 676 99Z" />
<glyph unicode="b" glyph-name="b" d="M341 1180T325 1178L136 1159Q119 1156 111 1144T103 1118Q103 1102 114 1091T142 1080Q148 1080 153 1081T162 1083L290 1091V74Q290 28 301 12T331 -4Q347 -4 357 2T375 31T382 102Q434 49 509 16T674 -17Q789 -17 873
36T1003 183T1048 398Q1048 517 1002 611T871 759T670 813Q579 813 513 786T386 707V1141Q386 1180 345 1180Q341 1180 325 1178ZM576 65T505 104T386 210V602Q489 731 664 731Q756 731 821 686T919 565T952 398Q952 306 920 231T825 110T672 65Q576 65 505 104Z"
/>
<glyph unicode="c" glyph-name="c" d="M183 276T239 181T397 34T632 -17Q717 -17 812 15T960 105Q978 125 978 147Q978 168 968 178T943 188Q919 188 902 172Q840 115 778 90T624 65Q466 65 373 151T279 407Q279 508 323 580T450 692T650 731Q704 731 753 721T853
686L858 645Q868 557 879 521T919 484Q948 484 963 506T979 564Q979 693 886 753T635 813Q510 813 407 764T244 623T183 407Q183 276 239 181Z" />
<glyph unicode="d" glyph-name="d" d="M921 -3L1107 17Q1125 21 1135 33T1145 61Q1145 76 1135 86T1105 96H1099L951 85V1141Q951 1180 910 1180Q906 1180 890 1178L701 1159Q684 1156 676 1144T668 1118Q668 1102 679 1091T707 1080Q713 1080 718 1081T727 1083L855
1091V707Q795 759 729 786T571 813Q456 813 371 760T239 612T193 398Q193 277 239 183T370 36T571 -17Q663 -17 740 17T864 107L867 47Q868 22 881 10T914 -3H921ZM752 731T855 602V210Q754 65 573 65Q483 65 419 110T322 231T289 398Q289 489 322 565T420 686T577
731Q752 731 855 602Z" />
<glyph unicode="e" glyph-name="e" d="M212 276T269 181T428 34T665 -17Q750 -17 847 16T997 105Q1015 125 1015 147Q1015 165 1004 178T975 191Q955 191 934 174Q877 120 805 93T657 65Q503 65 408 147T308 387L937 392Q972 392 993 416T1014 479Q1014 586 968
661T840 774T654 813Q532 813 432 764T272 623T212 407Q212 276 269 181ZM812 731T867 652T929 465L311 461Q329 589 419 660T656 731Q812 731 867 652Z" />
<glyph unicode="f" glyph-name="f" d="M1036 1160T1020 1174T979 1188Q769 1188 657 1102T544 838V766H348Q328 766 317 754T306 726Q306 709 318 697T352 684H544V82H323Q303 82 292 70T281 42Q281 25 293 13T327 0H1002Q1021 0 1031 12T1042 41Q1042 57 1032
69T1003 82H641L640 684H949Q968 684 979 696T990 725Q990 741 980 753T950 766H641V832Q641 928 667 985T758 1071T940 1109V1016Q940 991 954 978T987 964Q1007 964 1021 978T1036 1020V1137Q1036 1160 1020 1174Z" />
<glyph unicode="g" glyph-name="g" d="M399 216T424 238T493 274T588 287Q757 287 840 348T924 540Q924 630 867 701L1036 775Q1106 775 1137 789T1169 826Q1169 877 1111 877Q1052 877 990 835L838 734Q791 773 729 793T599 813Q510 813 437 784T320 694T276
545Q276 463 319 415T448 331Q419 327 385 307T327 254T303 185Q303 140 326 111T397 58Q344 32 311 -21T278 -147Q278 -257 364 -303T585 -350Q692 -350 785 -324T936 -245T994 -114Q994 -22 954 26T839 91T641 109H548Q486 109 454 119T410 147T399 190Q399 216
424 238ZM495 361T434 407T372 542Q372 637 435 684T597 731Q698 731 763 684T828 534Q828 439 762 400T591 361Q495 361 434 407ZM743 37T797 24T874 -23T898 -118Q898 -196 804 -232T583 -268Q475 -268 425 -237T374 -122Q374 -94 387 -60T421 2T460 37H644Q743
37 797 24Z" />
<glyph unicode="h" glyph-name="h" d="M896 82H750Q730 82 719 71T708 43Q708 26 720 13T754 0H1099Q1119 0 1130 12T1141 42Q1141 58 1131 70T1101 82H992V533Q992 667 922 740T711 813Q644 813 581 790T469 728T396 639V1141Q396 1180 355 1180Q351 1180 335
1178L146 1159Q130 1158 122 1145T113 1118Q113 1102 124 1092T152 1082L300 1091V82H192Q172 82 161 71T150 43Q150 26 162 13T196 0H499Q522 0 535 12T549 42Q549 58 537 70T501 82H396V497Q396 550 437 605T551 695T716 731Q805 731 850 681T896 540V82Z" />
<glyph unicode="i" glyph-name="i" d="M609 1054T633 1030T692 1006Q727 1006 750 1030T774 1088Q774 1123 750 1147T692 1171Q658 1171 634 1147T609 1088Q609 1054 633 1030ZM1110 0T1121 12T1132 41Q1132 57 1122 69T1092 82H759V779Q759 794 749 802T723 811Q715
811 712 810L314 755Q298 753 290 742T282 715Q282 698 293 686T323 673L330 674L663 719V82H291Q271 82 260 71T249 43Q249 26 261 13T295 0H1091Q1110 0 1121 12Z" />
<glyph unicode="j" glyph-name="j" d="M719 1054T743 1030T802 1006Q837 1006 860 1030T884 1088Q884 1123 860 1147T802 1171Q768 1171 744 1147T719 1088Q719 1054 743 1030ZM895 784Q895 799 885 806T859 813H339Q320 813 310 802T299 774Q299 757 310 744T343
731H799V-1Q799 -74 733 -123T568 -197T374 -221Q347 -221 332 -234T316 -266Q316 -284 330 -297T367 -310Q493 -310 615 -274T816 -169T895 -11V784Z" />
<glyph unicode="k" glyph-name="k" d="M464 1165T454 1173T428 1182L416 1181L182 1139Q166 1137 158 1126T150 1099Q150 1082 161 1070T191 1057Q195 1057 198 1058L368 1082V82H196Q176 82 165 70T154 42Q154 25 166 13T200 0H534Q553 0 563 12T574 41Q574 57
564 69T535 82H464V308L590 400L889 82H779Q757 82 745 70T733 41Q733 25 744 13T775 0H1088Q1107 0 1117 12T1128 41Q1128 57 1118 69T1088 82H1001L660 446L977 692H1066Q1082 692 1094 703T1106 729Q1106 749 1096 762T1065 775H748Q726 775 714 763T702 733Q702
716 713 704T744 692H847L464 399V1150Q464 1165 454 1173Z" />
<glyph unicode="l" glyph-name="l" d="M672 1181L254 1143Q238 1141 230 1130T222 1103Q222 1086 233 1074T263 1061L270 1062L623 1090V82H254Q234 82 223 70T212 42Q212 25 224 13T258 0H1058Q1077 0 1087 12T1098 41Q1098 57 1088 69T1059 82H719V1150Q719
1165 709 1173T683 1182L672 1181Z" />
<glyph unicode="m" glyph-name="m" d="M591 26T603 13T637 0H803Q823 0 834 12T845 42Q845 58 835 70T805 82H687V509Q688 565 715 616T786 699T872 731Q920 731 945 686T971 540V43Q971 26 983 13T1017 0H1174Q1194 0 1205 12T1216 42Q1216 58 1206 70T1176 82H1067V533Q1067
625 1042 688T975 782T878 813Q815 813 761 772T671 654Q649 733 602 773T496 813Q432 813 382 768T303 639L298 759Q296 798 259 798Q255 798 241 796L77 763Q60 759 52 748T44 722Q44 706 55 695T83 684Q93 684 103 687L211 709V82H103Q83 82 72 71T61 43Q61
26 73 13T107 0H390Q413 0 426 12T440 42Q440 58 428 70T392 82H307V503Q309 561 335 613T402 698T486 731Q534 731 562 685T591 540V43Q591 26 603 13Z" />
<glyph unicode="n" glyph-name="n" d="M894 82H748Q728 82 717 71T706 43Q706 26 718 13T752 0H1097Q1117 0 1128 12T1139 42Q1139 58 1129 70T1099 82H990V533Q990 667 920 740T709 813Q641 813 577 790T464 728T390 639L385 759Q383 798 346 798Q342 798 328
796L164 763Q147 759 139 748T131 722Q131 706 142 695T170 684Q180 684 190 687L298 709V82H190Q170 82 159 71T148 43Q148 26 160 13T194 0H497Q520 0 533 12T547 42Q547 58 535 70T499 82H394V503Q394 555 435 608T549 696T714 731Q803 731 848 681T894 540V82Z"
/>
<glyph unicode="o" glyph-name="o" d="M196 273T249 179T398 34T620 -17Q746 -17 842 34T991 179T1044 398Q1044 524 991 618T842 762T620 813Q494 813 398 763T249 618T196 398Q196 273 249 179ZM304 495T341 570T450 688T620 731Q718 731 789 689T898 571T936
398Q936 300 899 225T790 107T620 65Q522 65 451 107T342 224T304 398Q304 495 341 570Z" />
<glyph unicode="p" glyph-name="p" d="M394 798T357 798Q353 798 339 796L175 763Q158 759 150 748T142 722Q142 706 153 695T181 684Q187 684 192 685T201 687L309 708V-288H219Q200 -288 190 -300T179 -328Q179 -345 190 -357T221 -370H617Q639 -370 651 -357T663
-327Q663 -311 652 -300T621 -288H405V89Q465 37 531 10T689 -17Q804 -17 889 36T1021 184T1067 398Q1067 519 1022 613T893 760T693 813Q604 813 528 779T399 690L396 759Q394 798 357 798ZM508 65T405 194V586Q452 653 523 692T691 731Q781 731 844 686T939 566T971
398Q971 307 938 231T840 110T683 65Q508 65 405 194Z" />
<glyph unicode="q" glyph-name="q" d="M958 770T947 785T917 800Q901 800 891 794T873 765T866 694Q814 747 739 780T574 813Q459 813 375 760T245 613T200 398Q200 279 246 185T377 37T578 -17Q669 -17 735 10T862 89V-288H646Q626 -288 615 -299T604 -327Q604
-344 616 -357T650 -370H1046Q1066 -370 1077 -358T1088 -328Q1088 -312 1078 -300T1048 -288H958V724Q958 770 947 785ZM672 731T743 692T862 586V194Q759 65 584 65Q492 65 427 110T329 231T296 398Q296 490 328 565T423 686T576 731Q672 731 743 692Z" />
<glyph unicode="r" glyph-name="r" d="M920 586T934 573T967 559Q987 559 1001 573T1016 615V753Q1016 783 996 798T928 813Q650 813 536 638L532 742Q531 770 524 784T494 798Q484 798 471 795L300 761Q286 758 278 748T270 723Q270 707 280 695T310 683Q318
683 322 684L444 709V82H261Q241 82 230 70T219 42Q219 25 231 13T265 0H875Q894 0 905 12T916 41Q916 58 906 70T876 82H540V526Q580 626 683 678T920 731V611Q920 586 934 573Z" />
<glyph unicode="s" glyph-name="s" d="M287 502T342 454T497 387L763 335Q827 323 854 292T881 209Q881 136 821 101T646 65Q561 65 491 91T381 163T340 265Q340 297 331 307T304 317Q290 317 279 304T268 265L266 39Q266 22 278 11T306 0Q321 0 331 10T342 42V102Q397
39 477 11T652 -17Q801 -17 889 39T978 208Q978 311 926 361T776 430L517 482Q446 498 418 526T390 601Q390 731 602 731Q711 731 786 700T889 606Q890 559 897 540T929 521Q949 521 958 530T969 558L971 759Q971 782 959 795T930 808Q913 808 900 795T888 758V721Q858
760 777 786T609 813Q472 813 380 761T287 586Q287 502 342 454Z" />
<glyph unicode="t" glyph-name="t" d="M876 692Q895 692 905 704T916 733Q916 749 906 761T877 774H505V1013Q505 1035 498 1046T469 1058Q440 1058 428 1033T412 953T409 774H262Q242 774 231 763T220 735Q220 718 232 705T266 692H409V169Q409 120 444 77T539
9T667 -17Q734 -17 802 -2T921 38T994 88Q999 95 999 103Q999 120 985 137T957 154Q950 154 946 150Q898 114 823 90T677 65Q600 65 553 98T505 204V692H876Z" />
<glyph unicode="u" glyph-name="u" d="M366 768Q366 782 357 792T332 802Q328 802 320 800L145 765Q127 761 118 751T109 727Q109 710 122 697T155 684Q166 684 172 686L270 706V262Q270 179 304 116T405 18T561 -17Q655 -17 742 26T873 134L878 47Q879 22 892
10T925 -3H932L1118 17Q1136 21 1146 33T1156 61Q1156 76 1146 86T1116 96H1110L962 85V768Q962 782 953 792T928 802Q924 802 916 800L742 765Q723 761 714 751T704 726Q704 709 717 696T751 683Q760 683 769 686L866 706V231Q844 185 795 147T683 87T562 65Q465
65 416 118T366 259V768Z" />
<glyph unicode="v" glyph-name="v" d="M130 774T130 733Q130 692 172 692H273L567 59Q588 13 605 0T647 -14Q670 -14 685 -2T719 54L986 692H1075Q1117 692 1117 733Q1117 774 1071 774H810Q770 774 770 732Q770 692 809 692H894L650 92L383 692H492Q530 692 530
732Q530 774 491 774H176Q130 774 130 733Z" />
<glyph unicode="w" glyph-name="w" d="M465 774T465 733Q465 692 507 692H558L607 555L438 92L256 692H308Q346 692 346 732Q346 774 307 774H72Q26 774 26 733Q26 692 68 692H146L355 59Q370 13 389 0T435 -14Q459 -14 475 -2T507 54L651 433L786 59Q803 14 822
0T866 -14Q891 -14 908 -1T938 54L1130 692H1199Q1241 692 1241 733Q1241 774 1195 774H974Q934 774 934 732Q934 692 973 692H1038L869 92L657 692H766Q804 692 804 732Q804 774 765 774H511Q465 774 465 733Z" />
<glyph unicode="x" glyph-name="x" d="M1063 0T1076 12T1090 42Q1090 58 1077 70T1041 82H970L682 403L929 692H1027Q1068 692 1068 734Q1068 774 1029 774H762Q720 774 720 734Q720 692 766 692H811L623 469L423 692H463Q503 692 503 734Q503 774 465 774H228Q186
774 186 734Q186 692 232 692H320L570 406L297 82H213Q171 82 171 42Q171 0 217 0H464Q504 0 504 42Q504 82 466 82H407L628 340L853 82H773Q749 82 736 70T722 42Q722 25 736 13T778 0H1039Q1063 0 1076 12Z" />
<glyph unicode="y" glyph-name="y" d="M150 774T150 732Q150 692 191 692H284Q311 633 399 434Q416 396 478 256T597 -2L543 -141Q532 -170 506 -198T443 -243T371 -261Q303 -261 303 -309Q303 -333 317 -347T371 -361Q478 -361 548 -288T670 -83L973 692H1052Q1094
692 1094 733Q1094 774 1048 774H783Q743 774 743 732Q743 692 782 692H871L643 95L388 692H490Q529 692 529 732Q529 774 488 774H196Q150 774 150 732Z" />
<glyph unicode="z" glyph-name="z" d="M301 772T287 758T273 726V500Q273 477 286 464T318 450Q335 450 347 462T360 495L368 692H829L295 109Q278 90 278 59Q278 32 292 16T334 0H947Q966 0 982 14T998 46V315Q998 335 986 346T957 357Q940 357 927 347T913 319L902
82H387L939 682Q947 690 952 702T957 727Q957 746 943 759T896 772H319Q301 772 287 758Z" />
<glyph unicode="{" glyph-name="braceleft" d="M597 1108T622 1135T703 1174T860 1186Q873 1186 880 1198T888 1228Q888 1245 881 1257T860 1270Q704 1270 627 1245T526 1170T502 1034Q502 984 510 937T535 826Q550 768 557 731T564 657Q564 618 538 602T441 585Q418
585 406 569T394 529Q394 504 407 486T441 467Q510 467 537 447T564 385Q564 348 557 311T535 216Q519 152 511 105T502 8Q502 -79 526 -127T627 -201T860 -227Q873 -227 880 -215T888 -185Q888 -168 881 -156T860 -143Q759 -143 703 -132T622 -93T597 -15Q597
24 604 68T626 176Q642 252 649 296T657 385Q657 425 653 450T629 496T568 526Q609 534 628 552T652 595T657 658Q657 702 650 746T626 867Q612 930 605 974T597 1058Q597 1108 622 1135Z" />
<glyph unicode="|" glyph-name="bar" d="M639 -56Q639 -112 699 -112Q721 -112 740 -100T759 -67V1208Q757 1231 742 1244T701 1257Q676 1257 658 1244T639 1208V-56Z" />
<glyph unicode="}" glyph-name="braceright" d="M674 -65T649 -92T568 -131T411 -143Q398 -143 391 -155T383 -185Q383 -202 390 -214T411 -227Q567 -227 644 -202T745 -127T769 9Q769 59 761 106T736 217Q721 275 714 312T707 386Q707 425 733 441T830 458Q853
458 865 474T877 514Q877 539 864 557T830 576Q761 576 734 596T707 658Q707 695 714 732T736 827Q752 891 760 938T769 1035Q769 1122 745 1170T644 1244T411 1270Q398 1270 391 1258T383 1228Q383 1211 390 1199T411 1186Q512 1186 568 1175T649 1136T674 1058Q674
1019 667 975T645 867Q629 791 622 747T614 658Q614 618 618 593T642 547T703 517Q662 509 643 491T619 448T614 385Q614 341 621 297T645 176Q659 113 666 69T674 -15Q674 -65 649 -92Z" />
<glyph unicode="~" glyph-name="asciitilde" d="M411 691T418 700T438 732Q455 765 472 783T521 801Q547 801 577 789T661 749Q726 715 774 697T872 678Q921 678 961 703T1024 772T1048 872Q1048 890 1034 899T998 908Q983 908 973 898T948 866Q926 833 905 816T846
798Q831 798 811 807T754 837Q687 876 628 899T501 922Q460 922 426 897T371 827T350 727Q350 709 364 700T400 691Q411 691 418 700Z" />
<glyph unicode="&#xa0;" glyph-name="uni00A0" />
<glyph unicode="&#xa1;" glyph-name="exclamdown" d="M519 729T548 701T620 672Q663 672 692 700T722 772Q722 815 693 844T620 874Q577 874 548 845T519 772Q519 729 548 701ZM651 -322T668 -304T685 -238Q685 -160 680 -79T664 113Q653 247 648 324T643 485Q643
504 637 512T619 521Q607 521 601 513T595 485Q595 402 590 318T575 112Q565 -9 560 -85T555 -238Q555 -285 572 -303T619 -322Q651 -322 668 -304Z" />
<glyph unicode="&#xa2;" glyph-name="cent" d="M958 188T968 178T978 147Q978 125 960 105Q912 53 827 22T660 -16V-189Q660 -213 655 -224T634 -236Q617 -236 612 -226T607 -190V-17Q480 -12 385 40T236 186T183 407Q183 526 239 616T391 756T607 812V951Q607
972 612 981T634 990Q651 990 655 983T660 956V813Q808 808 893 748T979 564Q979 528 964 506T919 484Q890 484 879 520T858 645L853 686Q765 729 660 731V66Q736 70 791 95T902 172Q919 188 943 188Q958 188 968 178ZM279 243T367 157T607 65V730Q451 719 365
634T279 407Q279 243 367 157Z" />
<glyph unicode="&#xa3;" glyph-name="sterling" d="M441 -16T491 6T587 72Q662 23 715 3T848 -17Q939 -17 993 1T1047 82Q1047 103 1031 121T995 139Q970 139 951 124T908 83Q896 68 888 61T872 53Q801 53 750 68T644 128Q674 188 674 263Q674 341 647 414T577
564Q554 608 551 618H756Q767 618 774 630T781 657Q781 672 775 683T757 695H522Q492 759 475 813T458 923Q458 989 486 1033T558 1099T651 1121Q694 1121 723 1106T770 1071T804 1021Q819 996 827 987T849 977Q883 977 908 998T933 1053Q933 1071 929 1079T911
1104Q872 1151 810 1167T649 1184Q570 1184 502 1151T394 1058T353 921Q353 872 365 835T404 745Q423 704 427 695H285Q274 695 268 685T262 658Q262 642 269 630T287 618H456Q495 569 524 499T570 356T586 229Q586 184 574 161Q530 207 482 229T390 251Q330 251
290 217T250 130Q250 63 291 24T395 -16Q441 -16 491 6ZM329 128Q331 153 348 172T396 191Q453 191 531 116Q464 48 404 48Q370 48 350 69T329 122V128Z" />
<glyph unicode="&#xa4;" glyph-name="currency" d="M703 313T768 362L857 273Q869 261 882 261Q894 261 902 270T911 291Q911 304 900 315L810 405Q836 438 849 479T863 563Q863 650 817 715L901 799Q912 810 912 824Q912 836 903 845T882 854Q869 854 858 843L774
760Q710 811 616 811Q524 811 457 760L372 845Q361 856 347 856Q335 856 326 848T317 827Q317 814 328 803L414 717Q388 684 375 643T361 558Q361 514 374 473T414 400L328 314Q317 303 317 290Q317 278 326 269T347 260Q360 260 371 271L459 358Q522 313 611 313Q703
313 768 362ZM430 645T477 700T615 756Q705 756 753 701T801 560Q801 476 753 422T616 368Q558 368 516 393T452 463T430 560Q430 645 477 700Z" />
<glyph unicode="&#xa5;" glyph-name="yen" d="M1012 1095H1067Q1090 1095 1103 1106T1116 1132Q1116 1148 1103 1159T1065 1171H804Q781 1171 767 1160T753 1133Q753 1118 766 1107T803 1095H914L646 633L370 1095H506Q529 1095 542 1106T556 1133Q556 1148 543
1159T505 1171H175Q152 1171 138 1160T124 1133Q124 1118 137 1107T174 1095H258L578 578H318Q279 578 279 542Q279 506 318 506H593V369H318Q279 369 279 333Q279 297 318 297H593V86H332Q309 86 296 74T282 44Q282 26 296 13T334 0H919Q942 0 955 13T969 44Q969
61 957 73T921 86H689V297H956Q995 297 995 333Q995 369 956 369H689V506H956Q995 506 995 542Q995 578 956 578H707L1012 1095Z" />
<glyph unicode="&#xa6;" glyph-name="brokenbar" d="M664 1187T651 1195T621 1203Q603 1203 590 1195T577 1172V704Q577 693 590 686T621 679Q638 679 651 686T664 704V1172Q664 1187 651 1195ZM664 427T651 435T621 443Q603 443 590 435T577 412V-56Q577 -68
590 -74T621 -81Q638 -81 651 -75T664 -56V412Q664 427 651 435Z" />
<glyph unicode="&#xa7;" glyph-name="section" d="M456 807T432 758T408 651Q408 598 429 554T488 465Q518 429 569 378Q615 330 642 300T690 234Q712 196 712 152Q712 110 680 83T601 56Q557 56 527 78T481 140Q476 154 464 162T435 171Q417 171 406 160T394
131Q394 87 426 54T507 2T607 -17Q664 -17 708 6T778 72T804 168Q804 215 785 258T734 346Q777 366 801 415T825 522Q825 575 804 618T746 707Q717 742 667 792Q620 840 593 871T544 939Q521 977 521 1020Q521 1062 553 1089T631 1117Q675 1117 706 1095T753 1033Q758
1019 770 1011T800 1002Q818 1002 829 1012T840 1041Q840 1085 808 1119T727 1171T627 1190Q571 1190 526 1167T454 1101T428 1005Q428 957 448 914T500 827Q456 807 432 758ZM736 520T736 484Q736 458 726 432T698 391Q682 410 669 425T644 453Q598 503 570 538T520
613Q498 652 498 690Q498 716 508 741T536 782Q555 758 595 714Q635 670 663 634T713 560Q736 520 736 484Z" />
<glyph unicode="&#xa8;" glyph-name="dieresis" d="M449 1026T473 1002T532 978Q567 978 590 1002T614 1060Q614 1095 590 1119T532 1143Q498 1143 474 1119T449 1060Q449 1026 473 1002ZM784 1026T808 1002T867 978Q902 978 925 1002T949 1060Q949 1095 925 1119T867
1143Q833 1143 809 1119T784 1060Q784 1026 808 1002Z" />
<glyph unicode="&#xa9;" glyph-name="copyright" d="M440 1158T312 1090T116 892T48 581Q48 401 115 274T311 80T620 13Q800 13 928 79T1125 273T1193 581Q1193 762 1125 891T929 1089T620 1158Q440 1158 312 1090ZM860 1089T986 957T1113 583Q1113 343 987 213T620
83Q379 83 254 212T128 583Q128 742 184 855T350 1029T620 1089Q860 1089 986 957ZM924 461T915 468T894 476Q875 476 866 456Q835 380 775 339T627 298Q553 298 496 333T406 435T373 597Q373 678 405 743T495 846T631 884Q715 884 768 847T845 730Q853 703 875
703Q886 703 894 710T903 730V908Q903 922 894 930T873 938Q861 938 852 930T842 909V839Q817 885 760 915T631 946Q536 946 459 901T338 776T293 596Q293 486 335 404T453 277T627 232Q706 232 769 263T872 343T923 443L924 449Q924 461 915 468Z" />
<glyph unicode="&#xaa;" glyph-name="ordfeminine" d="M734 582L687 579Q577 572 513 561T405 514T361 408Q361 339 403 298T520 256Q589 256 647 281T739 343Q746 295 769 279T828 262Q857 262 884 275T934 311Q941 318 941 328Q941 339 934 347T916 356Q907
356 900 348Q889 336 870 326T833 315Q798 315 798 356V565Q798 647 781 700T720 783T600 812Q532 812 480 794T398 744T369 671Q369 650 379 637T408 623Q430 623 440 649T452 727Q487 743 522 750T599 757Q674 757 704 716T734 596V582ZM699 356T643 334T527
311Q481 311 454 334T426 408Q426 455 457 479T543 512T706 533L734 536V394Q699 356 643 334Z" />
<glyph unicode="&#xab;" glyph-name="guillemotleft" d="M608 202T619 212T630 238Q630 264 599 287L269 531L590 777Q614 795 614 816Q614 831 603 841T574 852Q560 852 544 841L210 586Q172 557 172 530Q172 504 210 475L554 216Q572 202 592 202Q608 202 619
212ZM972 202T983 212T994 238Q994 264 963 287L633 531L954 777Q978 795 978 816Q978 831 967 841T938 852Q924 852 908 841L574 586Q536 557 536 530Q536 504 574 475L918 216Q936 202 956 202Q972 202 983 212Z" />
<glyph unicode="&#xac;" glyph-name="logicalnot" d="M252 484T264 472T301 460H821V210Q821 185 835 172T868 158Q888 158 903 173T918 214V488Q918 516 903 531T858 546H301Q277 546 265 533T252 502Q252 484 264 472Z" />
<glyph unicode="&#xad;" glyph-name="uni00AD" d="M324 533T312 521T300 490Q300 473 312 460T345 447H895Q916 447 928 460T940 490Q940 508 928 520T895 533H345Q324 533 312 521Z" />
<glyph unicode="&#xae;" glyph-name="registered" d="M440 1158T312 1090T116 892T48 581Q48 401 115 274T311 80T620 13Q800 13 928 79T1125 273T1193 581Q1193 762 1125 891T929 1089T620 1158Q440 1158 312 1090ZM860 1089T986 957T1113 583Q1113 343 987 213T620
83Q379 83 254 212T128 583Q128 742 184 855T350 1029T620 1089Q860 1089 986 957ZM514 301V565H561Q582 565 624 568T671 574L759 301H730Q717 301 710 293T703 274Q703 263 710 254T732 245H879Q898 245 906 254T915 274Q915 285 907 293T878 301H841L737 587Q786
606 818 646T851 749Q851 826 818 867T727 922T578 937H396Q382 937 375 928T367 907Q367 896 374 887T395 878H443V301H379Q366 301 359 293T351 273Q351 263 359 254T380 245H605Q618 245 625 254T633 273Q633 284 626 292T605 301H514ZM564 878Q641 878 685
869T754 832T779 745Q779 690 750 664T680 632T573 624L514 623V878H564Z" />
<glyph unicode="&#xaf;" glyph-name="overscore" d="M930 1097T918 1108T881 1119H520Q470 1119 470 1076Q470 1055 482 1044T521 1033H883Q930 1033 930 1076Q930 1097 918 1108Z" />
<glyph unicode="&#xb0;" glyph-name="degree" d="M448 804T476 748T562 658T698 623Q777 623 834 658T921 751T950 873Q950 938 922 994T838 1086T703 1121Q623 1121 566 1085T478 991T448 868Q448 804 476 748ZM560 936T596 980T702 1024Q771 1024 808 980T845
870Q845 805 810 762T707 719Q662 719 629 739T578 794T560 870Q560 936 596 980Z" />
<glyph unicode="&#xb1;" glyph-name="plusminus" d="M669 804Q669 829 655 842T621 856Q601 856 587 843T573 804V558H316Q294 558 284 546T273 517Q273 499 283 488T316 476H573V235Q573 210 587 197T621 183Q641 183 655 196T669 235V476H924Q947 476 957 487T967
517Q967 534 957 546T924 558H669V804ZM273 23T283 12T316 0H924Q946 0 956 11T967 41Q967 58 957 70T924 82H316Q293 82 283 70T273 41Q273 23 283 12Z" />
<glyph unicode="&#xb2;" glyph-name="uni00B2" d="M555 1187T512 1169T441 1114T414 1025Q414 997 423 980T450 962Q468 962 474 986T487 1076Q487 1083 489 1101Q547 1133 609 1133Q671 1133 710 1099T750 1001Q750 967 732 934T686 871T609 795Q548 738 510
696T446 599T419 484Q419 473 423 455H805Q819 455 828 465T837 495V619Q837 639 830 649T810 659Q798 659 789 650T779 624L772 520H491Q506 584 547 634T660 750Q715 801 746 835T799 912T821 1007Q821 1064 790 1104T710 1166T606 1187Q555 1187 512 1169Z"
/>
<glyph unicode="&#xb3;" glyph-name="uni00B3" d="M708 796T753 754T798 637Q798 581 773 537T702 467T594 442Q551 442 528 449T483 471Q468 481 457 485T429 490Q417 490 409 482T400 465Q400 443 428 423T502 391T592 378Q668 378 731 411T831 502T868 633Q868
725 813 783T659 845Q823 925 823 1032Q823 1104 771 1145T640 1187Q602 1187 552 1175T466 1139T430 1084Q430 1074 438 1067T460 1059Q480 1059 490 1064T512 1083Q530 1102 555 1113T638 1124Q695 1124 724 1098T753 1032Q753 1000 735 975T689 929T606 877L558
848Q536 835 536 818Q536 805 543 798T564 790L587 792Q615 796 631 796Q708 796 753 754Z" />
<glyph unicode="&#xb4;" glyph-name="acute" d="M872 1265T853 1285T810 1305Q793 1305 779 1291L508 1015Q501 1008 501 1000Q501 991 508 985T525 978Q532 978 536 982L858 1216Q872 1226 872 1244Q872 1265 853 1285Z" />
<glyph unicode="&#xb5;" glyph-name="uni00B5" d="M366 768Q366 782 357 792T332 802Q328 802 320 800L145 765Q127 761 118 751T109 727Q109 710 122 697T155 684Q166 684 172 686L270 706V-256Q270 -297 285 -320T327 -343Q351 -343 369 -327T387 -278Q387 -273
385 -257Q374 -196 337 71Q375 29 432 6T561 -17Q655 -17 742 26T873 134L878 47Q879 22 892 10T925 -3H932L1118 17Q1136 21 1146 33T1156 61Q1156 76 1146 86T1116 96H1110L962 85V768Q962 782 953 792T928 802Q924 802 916 800L742 765Q723 761 714 751T704
726Q704 709 717 696T751 683Q760 683 769 686L866 706V231Q844 185 795 147T683 87T562 65Q465 65 416 118T366 259V768Z" />
<glyph unicode="&#xb6;" glyph-name="paragraph" d="M448 1171T376 1134T268 1035T232 903Q232 829 269 762T376 653T540 611V82H331Q312 82 302 71T292 43Q292 26 303 13T333 0H1071Q1090 0 1101 13T1112 43Q1112 59 1102 70T1073 82H892L890 1171H554Q448 1171
376 1134ZM636 1089H794V82H636V1089Z" />
<glyph unicode="&#xb7;" glyph-name="middot" d="M616 563T640 539T699 515Q734 515 757 539T781 597Q781 632 757 656T699 680Q665 680 641 656T616 597Q616 563 640 539Z" />
<glyph unicode="&#xb8;" glyph-name="cedilla" d="M36 -306Q28 -330 28 -347Q28 -372 41 -386T77 -401Q99 -401 116 -382T139 -321L180 0H143L36 -306Z" />
<glyph unicode="&#xb9;" glyph-name="uni00B9" d="M620 1174T614 1171L441 1095Q424 1088 424 1070Q424 1058 432 1048T453 1038Q459 1038 465 1041L589 1096V455H465Q451 455 443 446T434 426Q434 414 443 405T468 396H763Q777 396 784 404T792 425Q792 437 785
446T764 455H658V1140Q658 1157 650 1165T628 1174Q620 1174 614 1171Z" />
<glyph unicode="&#xba;" glyph-name="ordmasculine" d="M977 337T943 399T846 495T702 529Q619 529 555 496T456 400T421 255Q421 172 456 110T555 14T702 -20Q784 -20 846 14T942 110T977 255Q977 337 943 399ZM878 168T832 113T702 57Q617 57 570 111T522 255Q522
343 569 397T702 451Q785 451 831 397T878 255Q878 168 832 113Z" />
<glyph unicode="&#xbb;" glyph-name="guillemotright" d="M216 845T205 835T194 809Q194 783 225 760L555 516L234 270Q210 252 210 231Q210 216 221 206T250 195Q264 195 280 206L614 461Q652 490 652 517Q652 543 614 572L270 831Q252 845 232 845Q216 845 205
835ZM580 845T569 835T558 809Q558 783 589 760L919 516L598 270Q574 252 574 231Q574 216 585 206T614 195Q628 195 644 206L978 461Q1016 490 1016 517Q1016 543 978 572L634 831Q616 845 596 845Q580 845 569 835Z" />
<glyph unicode="&#xbc;" glyph-name="onequarter" d="M231 1119T225 1116L51 1040Q34 1033 34 1015Q34 1003 43 993T64 982Q70 982 76 985L199 1041V399H75Q61 399 53 391T45 371Q45 359 53 350T78 340H374Q388 340 395 349T403 370Q403 382 396 390T375 399H269V1085Q269
1102 261 1110T239 1119Q231 1119 225 1116ZM319 52T329 43T354 34Q371 34 382 52L992 1070Q996 1078 996 1086Q996 1099 986 1107T961 1115Q943 1115 934 1099L322 79Q319 74 319 65Q319 52 329 43ZM1173 1T1180 10T1188 33Q1188 45 1181 54T1160 63H1036V245H1153Q1167
245 1174 253T1182 273Q1182 284 1175 292T1155 301H1036V762Q1036 785 1027 794T1005 804Q996 804 988 801T977 794L668 301Q660 288 660 279Q660 266 669 256T690 245H961V63H785Q773 63 766 54T759 32Q759 19 766 10T786 1H1159Q1173 1 1180 10ZM961 301H743L961
667V301Z" />
<glyph unicode="&#xbd;" glyph-name="onehalf" d="M231 1119T225 1116L51 1040Q34 1033 34 1015Q34 1003 43 993T64 982Q70 982 76 985L199 1041V399H75Q61 399 53 391T45 371Q45 359 53 350T78 340H374Q388 340 395 349T403 370Q403 382 396 390T375 399H269V1085Q269
1102 261 1110T239 1119Q231 1119 225 1116ZM292 52T302 43T327 34Q344 34 355 52L965 1070Q969 1078 969 1086Q969 1099 959 1107T934 1115Q916 1115 907 1099L295 79Q292 74 292 65Q292 52 302 43ZM901 732T858 714T787 659T760 570Q760 542 769 525T796 507Q814
507 820 531T833 621Q833 628 835 646Q895 679 955 679Q1017 679 1056 644T1096 546Q1096 512 1078 479T1032 416T955 340Q894 283 856 241T792 144T765 29Q765 18 769 0H1151Q1165 0 1174 10T1183 40V164Q1183 184 1176 194T1156 204Q1144 204 1135 195T1125 169L1118
65H837Q852 129 893 179T1006 295Q1061 346 1092 380T1145 457T1167 552Q1167 609 1136 649T1056 711T952 732Q901 732 858 714Z" />
<glyph unicode="&#xbe;" glyph-name="threequarters" d="M324 731T368 689T413 572Q413 516 389 472T318 402T210 377Q167 377 144 384T99 406Q84 416 73 420T45 425Q33 425 25 417T16 400Q16 378 44 358T118 326T208 313Q284 313 347 346T447 437T484 568Q484
660 429 718T275 780Q439 860 439 967Q439 1039 387 1080T256 1122Q218 1122 168 1110T82 1074T46 1019Q46 1009 54 1002T76 994Q96 994 106 999T128 1018Q145 1038 170 1048T254 1059Q311 1059 339 1033T368 967Q368 934 350 909T304 863T221 811L174 783Q152
770 152 753Q152 740 159 733T180 725L203 727Q231 731 247 731Q324 731 368 689ZM338 52T348 43T373 34Q390 34 401 52L1011 1070Q1015 1078 1015 1086Q1015 1099 1005 1107T980 1115Q962 1115 953 1099L341 79Q338 74 338 65Q338 52 348 43ZM1197 1T1204 10T1212
33Q1212 45 1205 54T1184 63H1060V245H1177Q1191 245 1198 253T1206 273Q1206 284 1199 292T1179 301H1060V762Q1060 785 1051 794T1029 804Q1020 804 1012 801T1001 794L692 301Q684 288 684 279Q684 266 693 256T714 245H985V63H809Q797 63 790 54T783 32Q783
19 790 10T810 1H1183Q1197 1 1204 10ZM985 301H767L985 667V301Z" />
<glyph unicode="&#xbf;" glyph-name="questiondown" d="M555 976T584 948T656 919Q699 919 728 948T758 1020Q758 1063 729 1092T656 1122Q613 1122 584 1092T555 1019Q555 976 584 948ZM713 -75T774 -49T870 26T905 142Q905 177 893 199T856 222Q828 222 814
199T794 143T786 57L784 31Q746 14 710 8T635 2Q569 2 520 27T445 97T418 201Q418 220 421 239Q428 288 448 328T494 397T562 470Q607 515 633 547T678 622T696 720Q696 748 690 761T662 775Q643 775 637 762T630 719Q630 681 612 648T565 586T489 516Q429 464
391 424T327 329T300 207Q300 116 342 53T460 -43T632 -75Q713 -75 774 -49Z" />
<glyph unicode="&#xc0;" glyph-name="Agrave" d="M669 1506T511 1642Q500 1652 483 1652Q461 1652 443 1634T425 1595Q425 1577 444 1564L523 1514Q708 1398 784 1354Q788 1350 796 1350Q809 1350 819 1361T829 1385Q829 1400 819 1406Q669 1506 511 1642ZM462
0T475 12T489 43Q489 60 476 73T439 86H280L392 392H875L982 86H796Q773 86 760 74T747 44Q747 26 760 13T798 0H1164Q1187 0 1200 13T1214 44Q1214 61 1202 73T1166 86H1087L725 1106Q702 1171 644 1171H341Q318 1171 305 1158T292 1128Q292 1110 305 1098T342
1085H559L174 86H89Q66 86 53 73T40 43Q40 25 53 13T90 0H438Q462 0 475 12ZM646 1072L845 475H425L646 1072Z" />
<glyph unicode="&#xc1;" glyph-name="Aacute" d="M812 1637T793 1657T750 1677Q733 1677 719 1663L448 1387Q441 1380 441 1372Q441 1363 448 1357T465 1350Q472 1350 476 1354L798 1588Q812 1598 812 1616Q812 1637 793 1657ZM462 0T475 12T489 43Q489 60 476
73T439 86H280L392 392H875L982 86H796Q773 86 760 74T747 44Q747 26 760 13T798 0H1164Q1187 0 1200 13T1214 44Q1214 61 1202 73T1166 86H1087L725 1106Q702 1171 644 1171H341Q318 1171 305 1158T292 1128Q292 1110 305 1098T342 1085H559L174 86H89Q66 86 53
73T40 43Q40 25 53 13T90 0H438Q462 0 475 12ZM646 1072L845 475H425L646 1072Z" />
<glyph unicode="&#xc2;" glyph-name="Acircumflex" d="M412 1396Q405 1389 405 1379Q405 1367 416 1359T442 1350Q459 1350 465 1359L627 1568L790 1359Q796 1350 813 1350Q827 1350 838 1358T850 1379Q850 1389 843 1396L659 1679Q655 1685 646 1688T627 1691Q603
1691 596 1679L412 1396ZM462 0T475 12T489 43Q489 60 476 73T439 86H280L392 392H875L982 86H796Q773 86 760 74T747 44Q747 26 760 13T798 0H1164Q1187 0 1200 13T1214 44Q1214 61 1202 73T1166 86H1087L725 1106Q702 1171 644 1171H341Q318 1171 305 1158T292
1128Q292 1110 305 1098T342 1085H559L174 86H89Q66 86 53 73T40 43Q40 25 53 13T90 0H438Q462 0 475 12ZM646 1072L845 475H425L646 1072Z" />
<glyph unicode="&#xc3;" glyph-name="Atilde" d="M376 1385T389 1377T417 1368Q433 1368 439 1380Q453 1414 468 1431T502 1448Q508 1448 511 1447Q537 1441 601 1407Q641 1387 669 1374T725 1354Q743 1350 752 1350Q830 1350 878 1475Q881 1489 864 1501T830
1513Q817 1513 813 1505Q809 1497 798 1475T774 1441T748 1429Q734 1429 710 1440T645 1472Q637 1476 608 1490T556 1514T516 1526Q504 1528 500 1528Q471 1528 442 1508T395 1456T376 1396Q376 1385 389 1377ZM462 0T475 12T489 43Q489 60 476 73T439 86H280L392
392H875L982 86H796Q773 86 760 74T747 44Q747 26 760 13T798 0H1164Q1187 0 1200 13T1214 44Q1214 61 1202 73T1166 86H1087L725 1106Q702 1171 644 1171H341Q318 1171 305 1158T292 1128Q292 1110 305 1098T342 1085H559L174 86H89Q66 86 53 73T40 43Q40 25 53
13T90 0H438Q462 0 475 12ZM646 1072L845 475H425L646 1072Z" />
<glyph unicode="&#xc4;" glyph-name="Adieresis" d="M377 1357T401 1333T460 1309Q495 1309 518 1333T542 1391Q542 1426 518 1450T460 1474Q426 1474 402 1450T377 1391Q377 1357 401 1333ZM712 1357T736 1333T795 1309Q830 1309 853 1333T877 1391Q877 1426
853 1450T795 1474Q761 1474 737 1450T712 1391Q712 1357 736 1333ZM462 0T475 12T489 43Q489 60 476 73T439 86H280L392 392H875L982 86H796Q773 86 760 74T747 44Q747 26 760 13T798 0H1164Q1187 0 1200 13T1214 44Q1214 61 1202 73T1166 86H1087L725 1106Q702
1171 644 1171H341Q318 1171 305 1158T292 1128Q292 1110 305 1098T342 1085H559L174 86H89Q66 86 53 73T40 43Q40 25 53 13T90 0H438Q462 0 475 12ZM646 1072L845 475H425L646 1072Z" />
<glyph unicode="&#xc5;" glyph-name="Aring" d="M456 1301T476 1263T534 1200T627 1176Q681 1176 720 1200T779 1264T799 1347Q799 1391 780 1429T722 1492T630 1516Q575 1516 536 1492T477 1428T456 1344Q456 1301 476 1263ZM532 1390T557 1420T629 1450Q675
1450 700 1420T726 1345Q726 1300 702 1271T632 1241Q586 1241 559 1271T532 1345Q532 1390 557 1420ZM462 0T475 12T489 43Q489 60 476 73T439 86H280L392 392H875L982 86H796Q773 86 760 74T747 44Q747 26 760 13T798 0H1164Q1187 0 1200 13T1214 44Q1214 61
1202 73T1166 86H1087L725 1106Q702 1171 644 1171H341Q318 1171 305 1158T292 1128Q292 1110 305 1098T342 1085H559L174 86H89Q66 86 53 73T40 43Q40 25 53 13T90 0H438Q462 0 475 12ZM646 1072L845 475H425L646 1072Z" />
<glyph unicode="&#xc6;" glyph-name="AE" d="M421 0T434 12T448 43Q448 60 435 73T398 86H231L327 392H642V85H612Q589 85 576 73T562 43Q562 26 575 13T613 0H1059Q1084 0 1099 14T1115 53V283Q1115 308 1103 321T1073 335Q1057 335 1045 324T1032 296L1016 85H729V560H871L884
452Q885 432 897 421T924 409Q940 409 951 422T962 460V732Q962 758 951 771T924 785Q909 785 898 773T884 740L871 637H729V1085H1013L1027 887Q1028 869 1039 859T1066 849Q1082 849 1094 860T1106 893V1117Q1106 1142 1091 1156T1050 1171H300Q277 1171 264
1158T251 1128Q251 1110 264 1098T301 1085H463L138 86H87Q64 86 51 73T38 43Q38 25 51 13T88 0H397Q421 0 434 12ZM354 475L545 1085H642V475H354Z" />
<glyph unicode="&#xc7;" glyph-name="Ccedilla" d="M1110 387T1128 374T1146 343Q1146 338 1145 336Q1125 246 1066 166T907 34T669 -17H656L617 -325Q612 -367 595 -386T555 -405Q532 -405 519 -391T506 -351Q506 -334 514 -310L617 -15Q476 -2 366 78T194 294T132
607Q132 777 201 909T393 1114T668 1187Q746 1187 817 1165T941 1103T1022 1015V1121Q1022 1144 1036 1157T1071 1171Q1091 1171 1105 1158T1120 1120V827Q1120 804 1107 792T1074 780Q1056 780 1043 792T1026 827Q1011 908 961 970T835 1066T671 1101Q536 1101
436 1037T282 859T228 600Q228 437 288 317T450 133T670 69Q812 69 910 146T1049 359Q1059 387 1089 387Q1110 387 1128 374Z" />
<glyph unicode="&#xc8;" glyph-name="Egrave" d="M662 1506T504 1642Q493 1652 476 1652Q454 1652 436 1634T418 1595Q418 1577 437 1564L516 1514Q701 1398 777 1354Q781 1350 789 1350Q802 1350 812 1361T822 1385Q822 1400 812 1406Q662 1506 504 1642ZM837
805T826 818T799 832Q784 832 773 820T759 787L746 654H420V1085H1029L1043 841Q1044 823 1056 813T1085 803Q1101 803 1113 814T1125 847V1117Q1125 1142 1110 1156T1069 1171H191Q168 1171 155 1158T141 1127Q141 1110 153 1098T189 1085H324V85H154Q131 85 118
73T104 43Q104 26 117 13T155 0H1081Q1106 0 1121 14T1137 53V323Q1137 348 1125 361T1095 375Q1078 375 1065 364T1051 336L1035 85H420V577H746L759 429Q760 409 772 398T799 386Q815 386 826 399T837 437V779Q837 805 826 818Z" />
<glyph unicode="&#xc9;" glyph-name="Eacute" d="M806 1637T787 1657T744 1677Q727 1677 713 1663L442 1387Q435 1380 435 1372Q435 1363 442 1357T459 1350Q466 1350 470 1354L792 1588Q806 1598 806 1616Q806 1637 787 1657ZM837 805T826 818T799 832Q784 832
773 820T759 787L746 654H420V1085H1029L1043 841Q1044 823 1056 813T1085 803Q1101 803 1113 814T1125 847V1117Q1125 1142 1110 1156T1069 1171H191Q168 1171 155 1158T141 1127Q141 1110 153 1098T189 1085H324V85H154Q131 85 118 73T104 43Q104 26 117 13T155
0H1081Q1106 0 1121 14T1137 53V323Q1137 348 1125 361T1095 375Q1078 375 1065 364T1051 336L1035 85H420V577H746L759 429Q760 409 772 398T799 386Q815 386 826 399T837 437V779Q837 805 826 818Z" />
<glyph unicode="&#xca;" glyph-name="Ecircumflex" d="M405 1396Q398 1389 398 1379Q398 1367 409 1359T435 1350Q452 1350 458 1359L620 1568L783 1359Q789 1350 806 1350Q820 1350 831 1358T843 1379Q843 1389 836 1396L652 1679Q648 1685 639 1688T620 1691Q596
1691 589 1679L405 1396ZM837 805T826 818T799 832Q784 832 773 820T759 787L746 654H420V1085H1029L1043 841Q1044 823 1056 813T1085 803Q1101 803 1113 814T1125 847V1117Q1125 1142 1110 1156T1069 1171H191Q168 1171 155 1158T141 1127Q141 1110 153 1098T189
1085H324V85H154Q131 85 118 73T104 43Q104 26 117 13T155 0H1081Q1106 0 1121 14T1137 53V323Q1137 348 1125 361T1095 375Q1078 375 1065 364T1051 336L1035 85H420V577H746L759 429Q760 409 772 398T799 386Q815 386 826 399T837 437V779Q837 805 826 818Z"
/>
<glyph unicode="&#xcb;" glyph-name="Edieresis" d="M371 1357T395 1333T454 1309Q489 1309 512 1333T536 1391Q536 1426 512 1450T454 1474Q420 1474 396 1450T371 1391Q371 1357 395 1333ZM706 1357T730 1333T789 1309Q824 1309 847 1333T871 1391Q871 1426
847 1450T789 1474Q755 1474 731 1450T706 1391Q706 1357 730 1333ZM837 805T826 818T799 832Q784 832 773 820T759 787L746 654H420V1085H1029L1043 841Q1044 823 1056 813T1085 803Q1101 803 1113 814T1125 847V1117Q1125 1142 1110 1156T1069 1171H191Q168 1171
155 1158T141 1127Q141 1110 153 1098T189 1085H324V85H154Q131 85 118 73T104 43Q104 26 117 13T155 0H1081Q1106 0 1121 14T1137 53V323Q1137 348 1125 361T1095 375Q1078 375 1065 364T1051 336L1035 85H420V577H746L759 429Q760 409 772 398T799 386Q815 386
826 399T837 437V779Q837 805 826 818Z" />
<glyph unicode="&#xcc;" glyph-name="Igrave" d="M694 1506T536 1642Q525 1652 508 1652Q486 1652 468 1634T450 1595Q450 1577 469 1564L548 1514Q733 1398 809 1354Q813 1350 821 1350Q834 1350 844 1361T854 1385Q854 1400 844 1406Q694 1506 536 1642ZM1019
0T1032 12T1045 43Q1045 60 1032 73T996 86H710V1085H996Q1019 1085 1032 1097T1045 1127Q1045 1145 1032 1158T995 1171H310Q286 1171 273 1158T259 1127Q259 1110 272 1098T309 1085H614V86H309Q286 86 273 73T259 43Q259 25 272 13T310 0H995Q1019 0 1032 12Z"
/>
<glyph unicode="&#xcd;" glyph-name="Iacute" d="M837 1637T818 1657T775 1677Q758 1677 744 1663L473 1387Q466 1380 466 1372Q466 1363 473 1357T490 1350Q497 1350 501 1354L823 1588Q837 1598 837 1616Q837 1637 818 1657ZM1019 0T1032 12T1045 43Q1045 60
1032 73T996 86H710V1085H996Q1019 1085 1032 1097T1045 1127Q1045 1145 1032 1158T995 1171H310Q286 1171 273 1158T259 1127Q259 1110 272 1098T309 1085H614V86H309Q286 86 273 73T259 43Q259 25 272 13T310 0H995Q1019 0 1032 12Z" />
<glyph unicode="&#xce;" glyph-name="Icircumflex" d="M436 1396Q429 1389 429 1379Q429 1367 440 1359T466 1350Q483 1350 489 1359L651 1568L814 1359Q820 1350 837 1350Q851 1350 862 1358T874 1379Q874 1389 867 1396L683 1679Q679 1685 670 1688T651 1691Q627
1691 620 1679L436 1396ZM1019 0T1032 12T1045 43Q1045 60 1032 73T996 86H710V1085H996Q1019 1085 1032 1097T1045 1127Q1045 1145 1032 1158T995 1171H310Q286 1171 273 1158T259 1127Q259 1110 272 1098T309 1085H614V86H309Q286 86 273 73T259 43Q259 25 272
13T310 0H995Q1019 0 1032 12Z" />
<glyph unicode="&#xcf;" glyph-name="Idieresis" d="M402 1357T426 1333T485 1309Q520 1309 543 1333T567 1391Q567 1426 543 1450T485 1474Q451 1474 427 1450T402 1391Q402 1357 426 1333ZM737 1357T761 1333T820 1309Q855 1309 878 1333T902 1391Q902 1426
878 1450T820 1474Q786 1474 762 1450T737 1391Q737 1357 761 1333ZM1019 0T1032 12T1045 43Q1045 60 1032 73T996 86H710V1085H996Q1019 1085 1032 1097T1045 1127Q1045 1145 1032 1158T995 1171H310Q286 1171 273 1158T259 1127Q259 1110 272 1098T309 1085H614V86H309Q286
86 273 73T259 43Q259 25 272 13T310 0H995Q1019 0 1032 12Z" />
<glyph unicode="&#xd0;" glyph-name="Eth" d="M314 86H151Q128 86 115 73T101 43Q101 25 114 13T152 0H513Q793 0 938 141T1084 591Q1084 883 933 1027T515 1171H157Q134 1171 121 1158T107 1127Q107 1110 119 1098T155 1085H314V648H168Q126 648 126 611Q126
572 172 572H314V86ZM420 86V572H605Q646 572 646 611Q646 628 638 638T607 648H420V1085H534Q752 1085 865 958T978 591Q978 420 932 309T785 142T520 86H420Z" />
<glyph unicode="&#xd1;" glyph-name="Ntilde" d="M380 1385T393 1377T421 1368Q437 1368 443 1380Q457 1414 472 1431T506 1448Q512 1448 515 1447Q541 1441 605 1407Q645 1387 673 1374T729 1354Q747 1350 756 1350Q834 1350 882 1475Q885 1489 868 1501T834
1513Q821 1513 817 1505Q813 1497 802 1475T778 1441T752 1429Q738 1429 714 1440T649 1472Q641 1476 612 1490T560 1514T520 1526Q508 1528 504 1528Q475 1528 446 1508T399 1456T380 1396Q380 1385 393 1377ZM285 86H159Q136 86 123 73T110 43Q110 25 123 13T160
0H518Q542 0 555 12T568 43Q568 60 555 73T519 86H381V1084L934 22Q943 4 958 -6T990 -16Q1011 -16 1025 0T1039 47V1085H1135Q1158 1085 1170 1097T1183 1127Q1183 1145 1170 1158T1133 1171H796Q772 1171 759 1158T745 1127Q745 1110 758 1098T794 1085H943V194L457
1147Q451 1160 442 1165T417 1171H130Q107 1171 94 1158T80 1127Q80 1110 93 1098T129 1085H285V86Z" />
<glyph unicode="&#xd2;" glyph-name="Ograve" d="M662 1506T504 1642Q493 1652 476 1652Q454 1652 436 1634T418 1595Q418 1577 437 1564L516 1514Q701 1398 777 1354Q781 1350 789 1350Q802 1350 812 1361T822 1385Q822 1400 812 1406Q662 1506 504 1642ZM1132
738T1074 876T899 1101T620 1187Q457 1187 341 1101T167 877T108 582Q108 426 166 289T341 68T620 -17Q783 -17 899 67T1073 289T1132 582Q1132 738 1074 876ZM1036 449T989 332T848 142T620 69Q486 69 392 141T251 331T204 582Q204 717 252 835T394 1027T620 1101Q752
1101 846 1028T988 836T1036 582Q1036 449 989 332Z" />
<glyph unicode="&#xd3;" glyph-name="Oacute" d="M805 1637T786 1657T743 1677Q726 1677 712 1663L441 1387Q434 1380 434 1372Q434 1363 441 1357T458 1350Q465 1350 469 1354L791 1588Q805 1598 805 1616Q805 1637 786 1657ZM1132 738T1074 876T899 1101T620
1187Q457 1187 341 1101T167 877T108 582Q108 426 166 289T341 68T620 -17Q783 -17 899 67T1073 289T1132 582Q1132 738 1074 876ZM1036 449T989 332T848 142T620 69Q486 69 392 141T251 331T204 582Q204 717 252 835T394 1027T620 1101Q752 1101 846 1028T988
836T1036 582Q1036 449 989 332Z" />
<glyph unicode="&#xd4;" glyph-name="Ocircumflex" d="M404 1396Q397 1389 397 1379Q397 1367 408 1359T434 1350Q451 1350 457 1359L619 1568L782 1359Q788 1350 805 1350Q819 1350 830 1358T842 1379Q842 1389 835 1396L651 1679Q647 1685 638 1688T619 1691Q595
1691 588 1679L404 1396ZM1132 738T1074 876T899 1101T620 1187Q457 1187 341 1101T167 877T108 582Q108 426 166 289T341 68T620 -17Q783 -17 899 67T1073 289T1132 582Q1132 738 1074 876ZM1036 449T989 332T848 142T620 69Q486 69 392 141T251 331T204 582Q204
717 252 835T394 1027T620 1101Q752 1101 846 1028T988 836T1036 582Q1036 449 989 332Z" />
<glyph unicode="&#xd5;" glyph-name="Otilde" d="M369 1385T382 1377T410 1368Q426 1368 432 1380Q446 1414 461 1431T495 1448Q501 1448 504 1447Q530 1441 594 1407Q634 1387 662 1374T718 1354Q736 1350 745 1350Q823 1350 871 1475Q874 1489 857 1501T823
1513Q810 1513 806 1505Q802 1497 791 1475T767 1441T741 1429Q727 1429 703 1440T638 1472Q630 1476 601 1490T549 1514T509 1526Q497 1528 493 1528Q464 1528 435 1508T388 1456T369 1396Q369 1385 382 1377ZM1132 738T1074 876T899 1101T620 1187Q457 1187 341
1101T167 877T108 582Q108 426 166 289T341 68T620 -17Q783 -17 899 67T1073 289T1132 582Q1132 738 1074 876ZM1036 449T989 332T848 142T620 69Q486 69 392 141T251 331T204 582Q204 717 252 835T394 1027T620 1101Q752 1101 846 1028T988 836T1036 582Q1036
449 989 332Z" />
<glyph unicode="&#xd6;" glyph-name="Odieresis" d="M369 1398T393 1374T452 1350Q487 1350 510 1374T534 1432Q534 1467 510 1491T452 1515Q418 1515 394 1491T369 1432Q369 1398 393 1374ZM704 1398T728 1374T787 1350Q822 1350 845 1374T869 1432Q869 1467
845 1491T787 1515Q753 1515 729 1491T704 1432Q704 1398 728 1374ZM1132 738T1074 876T899 1101T620 1187Q457 1187 341 1101T167 877T108 582Q108 426 166 289T341 68T620 -17Q783 -17 899 67T1073 289T1132 582Q1132 738 1074 876ZM1036 449T989 332T848 142T620
69Q486 69 392 141T251 331T204 582Q204 717 252 835T394 1027T620 1101Q752 1101 846 1028T988 836T1036 582Q1036 449 989 332Z" />
<glyph unicode="&#xd7;" glyph-name="multiply" d="M699 558L516 742Q501 757 480 757Q460 757 445 742T430 707Q430 686 445 671L628 488L445 303Q430 288 430 268Q430 248 445 233T480 218Q501 218 516 233L699 417L883 233Q898 218 919 218Q939 218 954 233T969
268Q969 288 954 303L770 488L954 671Q969 686 969 707Q969 727 954 742T919 757Q898 757 883 742L699 558Z" />
<glyph unicode="&#xd8;" glyph-name="Oslash" d="M1029 991T1080 860T1132 582Q1132 426 1074 289T899 68T620 -17Q499 -17 399 33L295 -172Q286 -192 265 -192Q250 -192 238 -182T226 -158Q226 -152 229 -146L339 69Q227 149 168 287T108 582Q108 738 166 876T341
1101T620 1187Q763 1187 876 1117L972 1305Q981 1321 999 1321Q1013 1321 1025 1312T1037 1289Q1037 1281 1033 1274L932 1075Q1029 991 1080 860ZM204 452T249 337T381 151L834 1036Q742 1101 620 1101Q488 1101 394 1028T252 836T204 582Q204 452 249 337ZM754
69T848 141T989 331T1036 582Q1036 701 998 809T888 991L440 112Q518 69 620 69Q754 69 848 141Z" />
<glyph unicode="&#xd9;" glyph-name="Ugrave" d="M691 1506T533 1642Q522 1652 505 1652Q483 1652 465 1634T447 1595Q447 1577 466 1564L545 1514Q730 1398 806 1354Q810 1350 818 1350Q831 1350 841 1361T851 1385Q851 1400 841 1406Q691 1506 533 1642ZM1056
1085H1174Q1207 1085 1225 1097T1243 1127Q1243 1145 1225 1158T1173 1171H840Q816 1171 803 1158T789 1127Q789 1110 802 1098T839 1085H960V411Q960 311 922 234T815 113T654 69Q505 69 425 159T345 413V1085H507Q530 1085 543 1097T556 1127Q556 1145 543 1158T506
1171H105Q82 1171 69 1158T55 1127Q55 1110 68 1098T104 1085H249V413Q249 280 300 183T442 35T654 -17Q772 -17 863 37T1005 188T1056 411V1085Z" />
<glyph unicode="&#xda;" glyph-name="Uacute" d="M834 1637T815 1657T772 1677Q755 1677 741 1663L470 1387Q463 1380 463 1372Q463 1363 470 1357T487 1350Q494 1350 498 1354L820 1588Q834 1598 834 1616Q834 1637 815 1657ZM1056 1085H1174Q1207 1085 1225
1097T1243 1127Q1243 1145 1225 1158T1173 1171H840Q816 1171 803 1158T789 1127Q789 1110 802 1098T839 1085H960V411Q960 311 922 234T815 113T654 69Q505 69 425 159T345 413V1085H507Q530 1085 543 1097T556 1127Q556 1145 543 1158T506 1171H105Q82 1171 69
1158T55 1127Q55 1110 68 1098T104 1085H249V413Q249 280 300 183T442 35T654 -17Q772 -17 863 37T1005 188T1056 411V1085Z" />
<glyph unicode="&#xdb;" glyph-name="Ucircumflex" d="M434 1396Q427 1389 427 1379Q427 1367 438 1359T464 1350Q481 1350 487 1359L649 1568L812 1359Q818 1350 835 1350Q849 1350 860 1358T872 1379Q872 1389 865 1396L681 1679Q677 1685 668 1688T649 1691Q625
1691 618 1679L434 1396ZM1056 1085H1174Q1207 1085 1225 1097T1243 1127Q1243 1145 1225 1158T1173 1171H840Q816 1171 803 1158T789 1127Q789 1110 802 1098T839 1085H960V411Q960 311 922 234T815 113T654 69Q505 69 425 159T345 413V1085H507Q530 1085 543
1097T556 1127Q556 1145 543 1158T506 1171H105Q82 1171 69 1158T55 1127Q55 1110 68 1098T104 1085H249V413Q249 280 300 183T442 35T654 -17Q772 -17 863 37T1005 188T1056 411V1085Z" />
<glyph unicode="&#xdc;" glyph-name="Udieresis" d="M399 1357T423 1333T482 1309Q517 1309 540 1333T564 1391Q564 1426 540 1450T482 1474Q448 1474 424 1450T399 1391Q399 1357 423 1333ZM734 1357T758 1333T817 1309Q852 1309 875 1333T899 1391Q899 1426
875 1450T817 1474Q783 1474 759 1450T734 1391Q734 1357 758 1333ZM1056 1085H1174Q1207 1085 1225 1097T1243 1127Q1243 1145 1225 1158T1173 1171H840Q816 1171 803 1158T789 1127Q789 1110 802 1098T839 1085H960V411Q960 311 922 234T815 113T654 69Q505 69
425 159T345 413V1085H507Q530 1085 543 1097T556 1127Q556 1145 543 1158T506 1171H105Q82 1171 69 1158T55 1127Q55 1110 68 1098T104 1085H249V413Q249 280 300 183T442 35T654 -17Q772 -17 863 37T1005 188T1056 411V1085Z" />
<glyph unicode="&#xdd;" glyph-name="Yacute" d="M805 1637T786 1657T743 1677Q726 1677 712 1663L441 1387Q434 1380 434 1372Q434 1363 441 1357T458 1350Q465 1350 469 1354L791 1588Q805 1598 805 1616Q805 1637 786 1657ZM781 1171T767 1160T753 1133Q753
1118 766 1107T803 1095H914L646 633L370 1095H506Q529 1095 542 1106T556 1133Q556 1148 543 1159T505 1171H175Q152 1171 138 1160T124 1133Q124 1118 137 1107T174 1095H258L593 553V86H332Q309 86 296 74T282 44Q282 26 296 13T334 0H919Q942 0 955 13T969
44Q969 61 957 73T921 86H689V548L1012 1095H1067Q1090 1095 1103 1106T1116 1132Q1116 1148 1103 1159T1065 1171H804Q781 1171 767 1160Z" />
<glyph unicode="&#xde;" glyph-name="Thorn" d="M429 1085H592Q631 1085 631 1130Q631 1149 625 1160T600 1171H123Q82 1171 82 1127Q82 1085 121 1085H333V82H108Q68 82 68 41Q68 0 109 0H655Q695 0 695 41Q695 82 656 82H429V318Q628 318 756 333T976 415T1067
619Q1067 763 980 830T766 912T429 928V1085ZM429 851Q647 851 762 832T924 764T971 626Q971 529 920 480T754 411T429 392V851Z" />
<glyph unicode="&#xdf;" glyph-name="germandbls" d="M463 1188T369 1077T274 700V82H143Q116 82 105 73T94 38Q94 17 106 9T145 0H524Q550 0 562 8T575 38Q575 63 564 72T526 82H370V706Q370 922 436 1014T619 1106Q716 1106 775 1051T835 898Q835 826 796 776T697
702T579 677Q556 677 544 666T532 636Q532 618 544 605T579 591Q678 591 762 564T900 477T954 320Q954 205 891 152T724 82Q687 76 675 70T663 44Q663 23 675 11T710 -1Q719 -1 724 0Q1052 50 1052 318Q1052 463 959 539T725 643Q774 657 820 692T897 779T928 894Q928
985 885 1051T771 1153T614 1188Q463 1188 369 1077Z" />
<glyph unicode="&#xe0;" glyph-name="agrave" d="M740 1132T582 1268Q571 1278 554 1278Q532 1278 514 1260T496 1221Q496 1203 515 1190L594 1140Q779 1024 855 980Q859 976 867 976Q880 976 890 987T900 1011Q900 1026 890 1032Q740 1132 582 1268ZM814 470L741
465Q578 454 482 437T319 367T253 210Q253 107 316 46T491 -16Q595 -16 683 21T821 113Q833 42 868 18T954 -7Q999 -7 1040 12T1114 66Q1124 76 1124 91Q1124 107 1113 120T1087 133Q1074 133 1063 121Q1046 103 1017 88T962 72Q938 72 924 84T910 132V444Q910
566 884 646T793 770T612 813Q510 813 431 786T308 711T264 603Q264 571 279 551T324 531Q358 531 372 570T390 686Q443 710 495 720T611 731Q723 731 768 669T814 490V470ZM760 132T676 99T502 65Q433 65 392 99T350 210Q350 280 398 316T527 366T773 397L814
401V189Q760 132 676 99Z" />
<glyph unicode="&#xe1;" glyph-name="aacute" d="M884 1519T865 1539T822 1559Q805 1559 791 1545L520 1269Q513 1262 513 1254Q513 1245 520 1239T537 1232Q544 1232 548 1236L870 1470Q884 1480 884 1498Q884 1519 865 1539ZM814 470L741 465Q578 454 482 437T319
367T253 210Q253 107 316 46T491 -16Q595 -16 683 21T821 113Q833 42 868 18T954 -7Q999 -7 1040 12T1114 66Q1124 76 1124 91Q1124 107 1113 120T1087 133Q1074 133 1063 121Q1046 103 1017 88T962 72Q938 72 924 84T910 132V444Q910 566 884 646T793 770T612
813Q510 813 431 786T308 711T264 603Q264 571 279 551T324 531Q358 531 372 570T390 686Q443 710 495 720T611 731Q723 731 768 669T814 490V470ZM760 132T676 99T502 65Q433 65 392 99T350 210Q350 280 398 316T527 366T773 397L814 401V189Q760 132 676 99Z"
/>
<glyph unicode="&#xe2;" glyph-name="acircumflex" d="M739 1278Q732 1271 732 1261Q732 1249 743 1241T769 1232Q786 1232 792 1241L954 1450L1117 1241Q1123 1232 1140 1232Q1154 1232 1165 1240T1177 1261Q1177 1271 1170 1278L986 1561Q982 1567 973 1570T954
1573Q930 1573 923 1561L739 1278ZM814 470L741 465Q578 454 482 437T319 367T253 210Q253 107 316 46T491 -16Q595 -16 683 21T821 113Q833 42 868 18T954 -7Q999 -7 1040 12T1114 66Q1124 76 1124 91Q1124 107 1113 120T1087 133Q1074 133 1063 121Q1046 103
1017 88T962 72Q938 72 924 84T910 132V444Q910 566 884 646T793 770T612 813Q510 813 431 786T308 711T264 603Q264 571 279 551T324 531Q358 531 372 570T390 686Q443 710 495 720T611 731Q723 731 768 669T814 490V470ZM760 132T676 99T502 65Q433 65 392 99T350
210Q350 280 398 316T527 366T773 397L814 401V189Q760 132 676 99Z" />
<glyph unicode="&#xe3;" glyph-name="atilde" d="M447 1267T460 1259T488 1250Q504 1250 510 1262Q524 1296 539 1313T573 1330Q579 1330 582 1329Q608 1323 672 1289Q712 1269 740 1256T796 1236Q814 1232 823 1232Q901 1232 949 1357Q952 1371 935 1383T901
1395Q888 1395 884 1387Q880 1379 869 1357T845 1323T819 1311Q805 1311 781 1322T716 1354Q708 1358 679 1372T627 1396T587 1408Q575 1410 571 1410Q542 1410 513 1390T466 1338T447 1278Q447 1267 460 1259ZM814 470L741 465Q578 454 482 437T319 367T253 210Q253
107 316 46T491 -16Q595 -16 683 21T821 113Q833 42 868 18T954 -7Q999 -7 1040 12T1114 66Q1124 76 1124 91Q1124 107 1113 120T1087 133Q1074 133 1063 121Q1046 103 1017 88T962 72Q938 72 924 84T910 132V444Q910 566 884 646T793 770T612 813Q510 813 431
786T308 711T264 603Q264 571 279 551T324 531Q358 531 372 570T390 686Q443 710 495 720T611 731Q723 731 768 669T814 490V470ZM760 132T676 99T502 65Q433 65 392 99T350 210Q350 280 398 316T527 366T773 397L814 401V189Q760 132 676 99Z" />
<glyph unicode="&#xe4;" glyph-name="adieresis" d="M695 1239T719 1215T778 1191Q813 1191 836 1215T860 1273Q860 1308 836 1332T778 1356Q744 1356 720 1332T695 1273Q695 1239 719 1215ZM1030 1239T1054 1215T1113 1191Q1148 1191 1171 1215T1195 1273Q1195
1308 1171 1332T1113 1356Q1079 1356 1055 1332T1030 1273Q1030 1239 1054 1215ZM814 470L741 465Q578 454 482 437T319 367T253 210Q253 107 316 46T491 -16Q595 -16 683 21T821 113Q833 42 868 18T954 -7Q999 -7 1040 12T1114 66Q1124 76 1124 91Q1124 107 1113
120T1087 133Q1074 133 1063 121Q1046 103 1017 88T962 72Q938 72 924 84T910 132V444Q910 566 884 646T793 770T612 813Q510 813 431 786T308 711T264 603Q264 571 279 551T324 531Q358 531 372 570T390 686Q443 710 495 720T611 731Q723 731 768 669T814 490V470ZM760
132T676 99T502 65Q433 65 392 99T350 210Q350 280 398 316T527 366T773 397L814 401V189Q760 132 676 99Z" />
<glyph unicode="&#xe5;" glyph-name="aring" d="M783 1357T803 1319T861 1256T954 1232Q1008 1232 1047 1256T1106 1320T1126 1403Q1126 1447 1107 1485T1049 1548T957 1572Q902 1572 863 1548T804 1484T783 1400Q783 1357 803 1319ZM859 1446T884 1476T956 1506Q1002
1506 1027 1476T1053 1401Q1053 1356 1029 1327T959 1297Q913 1297 886 1327T859 1401Q859 1446 884 1476ZM814 470L741 465Q578 454 482 437T319 367T253 210Q253 107 316 46T491 -16Q595 -16 683 21T821 113Q833 42 868 18T954 -7Q999 -7 1040 12T1114 66Q1124
76 1124 91Q1124 107 1113 120T1087 133Q1074 133 1063 121Q1046 103 1017 88T962 72Q938 72 924 84T910 132V444Q910 566 884 646T793 770T612 813Q510 813 431 786T308 711T264 603Q264 571 279 551T324 531Q358 531 372 570T390 686Q443 710 495 720T611 731Q723
731 768 669T814 490V470ZM760 132T676 99T502 65Q433 65 392 99T350 210Q350 280 398 316T527 366T773 397L814 401V189Q760 132 676 99Z" />
<glyph unicode="&#xe6;" glyph-name="ae" d="M934 -17T995 5T1106 85Q1122 104 1122 127Q1122 163 1086 163Q1068 163 1048 146Q1010 107 987 90T942 67T884 61Q776 61 718 145T655 394L1040 408Q1073 408 1092 429T1112 488Q1112 594 1080 667T992 776T869 813Q786
813 722 768T624 642Q611 720 552 766T406 813Q267 813 198 756T129 603Q129 571 143 551T185 531Q216 531 229 575T247 701Q273 712 313 721T405 731Q473 731 509 702T559 622T572 496V459Q406 450 318 434T174 365T119 203Q119 138 149 88T230 11T335 -17Q430
-17 509 21T628 129Q664 63 728 23T876 -17Q934 -17 995 5ZM959 731T993 655T1033 474L658 461Q663 533 679 590T740 689T870 731Q959 731 993 655ZM210 279T241 316T346 367T573 391Q574 282 603 193Q571 129 501 95T352 60Q291 60 251 99T210 203Q210 279 241
316Z" />
<glyph unicode="&#xe7;" glyph-name="ccedilla" d="M958 188T968 178T978 147Q978 125 960 105Q908 48 813 16T632 -17Q609 -17 598 -16L559 -325Q554 -367 537 -386T497 -405Q474 -405 461 -391T448 -351Q448 -334 456 -310L560 -13Q446 0 361 54T230 198T183
407Q183 531 243 623T407 764T635 813Q793 813 886 753T979 564Q979 528 964 506T919 484Q890 484 879 520T858 645L853 686Q803 711 754 721T650 731Q534 731 451 692T323 581T279 407Q279 238 372 152T624 65Q716 65 778 90T902 172Q919 188 943 188Q958 188
968 178Z" />
<glyph unicode="&#xe8;" glyph-name="egrave" d="M664 1091T506 1227Q495 1237 478 1237Q456 1237 438 1219T420 1180Q420 1162 439 1149L518 1099Q703 983 779 939Q783 935 791 935Q804 935 814 946T824 970Q824 985 814 991Q664 1091 506 1227ZM212 276T269
181T428 34T665 -17Q750 -17 847 16T997 105Q1015 125 1015 147Q1015 165 1004 178T975 191Q955 191 934 174Q877 120 805 93T657 65Q503 65 408 147T308 387L937 392Q972 392 993 416T1014 479Q1014 586 968 661T840 774T654 813Q532 813 432 764T272 623T212
407Q212 276 269 181ZM812 731T867 652T929 465L311 461Q329 589 419 660T656 731Q812 731 867 652Z" />
<glyph unicode="&#xe9;" glyph-name="eacute" d="M1063 1478T1044 1498T1001 1518Q984 1518 970 1504L699 1228Q692 1221 692 1213Q692 1204 699 1198T716 1191Q723 1191 727 1195L1049 1429Q1063 1439 1063 1457Q1063 1478 1044 1498ZM212 276T269 181T428 34T665
-17Q750 -17 847 16T997 105Q1015 125 1015 147Q1015 165 1004 178T975 191Q955 191 934 174Q877 120 805 93T657 65Q503 65 408 147T308 387L937 392Q972 392 993 416T1014 479Q1014 586 968 661T840 774T654 813Q532 813 432 764T272 623T212 407Q212 276 269
181ZM812 731T867 652T929 465L311 461Q329 589 419 660T656 731Q812 731 867 652Z" />
<glyph unicode="&#xea;" glyph-name="ecircumflex" d="M662 1237Q655 1230 655 1220Q655 1208 666 1200T692 1191Q709 1191 715 1200L877 1409L1040 1200Q1046 1191 1063 1191Q1077 1191 1088 1199T1100 1220Q1100 1230 1093 1237L909 1520Q905 1526 896 1529T877
1532Q853 1532 846 1520L662 1237ZM212 276T269 181T428 34T665 -17Q750 -17 847 16T997 105Q1015 125 1015 147Q1015 165 1004 178T975 191Q955 191 934 174Q877 120 805 93T657 65Q503 65 408 147T308 387L937 392Q972 392 993 416T1014 479Q1014 586 968 661T840
774T654 813Q532 813 432 764T272 623T212 407Q212 276 269 181ZM812 731T867 652T929 465L311 461Q329 589 419 660T656 731Q812 731 867 652Z" />
<glyph unicode="&#xeb;" glyph-name="edieresis" d="M619 1239T643 1215T702 1191Q737 1191 760 1215T784 1273Q784 1308 760 1332T702 1356Q668 1356 644 1332T619 1273Q619 1239 643 1215ZM954 1239T978 1215T1037 1191Q1072 1191 1095 1215T1119 1273Q1119
1308 1095 1332T1037 1356Q1003 1356 979 1332T954 1273Q954 1239 978 1215ZM212 276T269 181T428 34T665 -17Q750 -17 847 16T997 105Q1015 125 1015 147Q1015 165 1004 178T975 191Q955 191 934 174Q877 120 805 93T657 65Q503 65 408 147T308 387L937 392Q972
392 993 416T1014 479Q1014 586 968 661T840 774T654 813Q532 813 432 764T272 623T212 407Q212 276 269 181ZM812 731T867 652T929 465L311 461Q329 589 419 660T656 731Q812 731 867 652Z" />
<glyph unicode="&#xec;" glyph-name="igrave" d="M736 1091T578 1227Q567 1237 550 1237Q528 1237 510 1219T492 1180Q492 1162 511 1149L590 1099Q775 983 851 939Q855 935 863 935Q876 935 886 946T896 970Q896 985 886 991Q736 1091 578 1227ZM1114 0T1125
12T1136 41Q1136 57 1126 69T1096 82H763V779Q763 794 753 802T727 811Q719 811 716 810L318 755Q302 753 294 742T286 715Q286 698 297 686T327 673L334 674L667 719V82H295Q275 82 264 71T253 43Q253 26 265 13T299 0H1095Q1114 0 1125 12Z" />
<glyph unicode="&#xed;" glyph-name="iacute" d="M880 1478T861 1498T818 1518Q801 1518 787 1504L516 1228Q509 1221 509 1213Q509 1204 516 1198T533 1191Q540 1191 544 1195L866 1429Q880 1439 880 1457Q880 1478 861 1498ZM1114 0T1125 12T1136 41Q1136 57
1126 69T1096 82H763V779Q763 794 753 802T727 811Q719 811 716 810L318 755Q302 753 294 742T286 715Q286 698 297 686T327 673L334 674L667 719V82H295Q275 82 264 71T253 43Q253 26 265 13T299 0H1095Q1114 0 1125 12Z" />
<glyph unicode="&#xee;" glyph-name="icircumflex" d="M735 1237Q728 1230 728 1220Q728 1208 739 1200T765 1191Q782 1191 788 1200L950 1409L1113 1200Q1119 1191 1136 1191Q1150 1191 1161 1199T1173 1220Q1173 1230 1166 1237L982 1520Q978 1526 969 1529T950
1532Q926 1532 919 1520L735 1237ZM1114 0T1125 12T1136 41Q1136 57 1126 69T1096 82H763V779Q763 794 753 802T727 811Q719 811 716 810L318 755Q302 753 294 742T286 715Q286 698 297 686T327 673L334 674L667 719V82H295Q275 82 264 71T253 43Q253 26 265 13T299
0H1095Q1114 0 1125 12Z" />
<glyph unicode="&#xef;" glyph-name="idieresis" d="M701 1239T725 1215T784 1191Q819 1191 842 1215T866 1273Q866 1308 842 1332T784 1356Q750 1356 726 1332T701 1273Q701 1239 725 1215ZM1036 1239T1060 1215T1119 1191Q1154 1191 1177 1215T1201 1273Q1201
1308 1177 1332T1119 1356Q1085 1356 1061 1332T1036 1273Q1036 1239 1060 1215ZM1114 0T1125 12T1136 41Q1136 57 1126 69T1096 82H763V779Q763 794 753 802T727 811Q719 811 716 810L318 755Q302 753 294 742T286 715Q286 698 297 686T327 673L334 674L667 719V82H295Q275
82 264 71T253 43Q253 26 265 13T299 0H1095Q1114 0 1125 12Z" />
<glyph unicode="&#xf0;" glyph-name="eth" d="M839 1209T839 1226Q839 1244 826 1259T795 1275Q786 1275 777 1269L638 1172Q563 1234 483 1285Q479 1288 474 1288Q459 1288 444 1268T428 1231Q428 1223 434 1218Q442 1211 457 1202Q525 1153 565 1121L446 1038Q430
1026 430 1008Q430 991 442 978T471 964Q482 964 492 971L629 1065Q728 974 806 861T919 615Q860 727 777 770T607 813Q485 813 396 761T260 613T212 394Q212 270 260 177T396 34T602 -17Q806 -17 908 107T1010 453Q1010 632 941 795T703 1116L825 1199Q839 1209
839 1226ZM308 554T385 642T608 731Q691 731 761 692T872 577T914 391Q914 291 878 218T771 105T602 65Q517 65 451 103T346 215T308 391Q308 554 385 642Z" />
<glyph unicode="&#xf1;" glyph-name="ntilde" d="M640 1226T653 1218T681 1209Q697 1209 703 1221Q717 1255 732 1272T766 1289Q772 1289 775 1288Q801 1282 865 1248Q905 1228 933 1215T989 1195Q1007 1191 1016 1191Q1094 1191 1142 1316Q1145 1330 1128 1342T1094
1354Q1081 1354 1077 1346Q1073 1338 1062 1316T1038 1282T1012 1270Q998 1270 974 1281T909 1313Q901 1317 872 1331T820 1355T780 1367Q768 1369 764 1369Q735 1369 706 1349T659 1297T640 1237Q640 1226 653 1218ZM894 82H748Q728 82 717 71T706 43Q706 26 718
13T752 0H1097Q1117 0 1128 12T1139 42Q1139 58 1129 70T1099 82H990V533Q990 667 920 740T709 813Q641 813 577 790T464 728T390 639L385 759Q383 798 346 798Q342 798 328 796L164 763Q147 759 139 748T131 722Q131 706 142 695T170 684Q180 684 190 687L298
709V82H190Q170 82 159 71T148 43Q148 26 160 13T194 0H497Q520 0 533 12T547 42Q547 58 535 70T499 82H394V503Q394 555 435 608T549 696T714 731Q803 731 848 681T894 540V82Z" />
<glyph unicode="&#xf2;" glyph-name="ograve" d="M662 1091T504 1227Q493 1237 476 1237Q454 1237 436 1219T418 1180Q418 1162 437 1149L516 1099Q701 983 777 939Q781 935 789 935Q802 935 812 946T822 970Q822 985 812 991Q662 1091 504 1227ZM196 273T249
179T398 34T620 -17Q746 -17 842 34T991 179T1044 398Q1044 524 991 618T842 762T620 813Q494 813 398 763T249 618T196 398Q196 273 249 179ZM304 495T341 570T450 688T620 731Q718 731 789 689T898 571T936 398Q936 300 899 225T790 107T620 65Q522 65 451 107T342
224T304 398Q304 495 341 570Z" />
<glyph unicode="&#xf3;" glyph-name="oacute" d="M1061 1478T1042 1498T999 1518Q982 1518 968 1504L697 1228Q690 1221 690 1213Q690 1204 697 1198T714 1191Q721 1191 725 1195L1047 1429Q1061 1439 1061 1457Q1061 1478 1042 1498ZM196 273T249 179T398 34T620
-17Q746 -17 842 34T991 179T1044 398Q1044 524 991 618T842 762T620 813Q494 813 398 763T249 618T196 398Q196 273 249 179ZM304 495T341 570T450 688T620 731Q718 731 789 689T898 571T936 398Q936 300 899 225T790 107T620 65Q522 65 451 107T342 224T304 398Q304
495 341 570Z" />
<glyph unicode="&#xf4;" glyph-name="ocircumflex" d="M660 1237Q653 1230 653 1220Q653 1208 664 1200T690 1191Q707 1191 713 1200L875 1409L1038 1200Q1044 1191 1061 1191Q1075 1191 1086 1199T1098 1220Q1098 1230 1091 1237L907 1520Q903 1526 894 1529T875
1532Q851 1532 844 1520L660 1237ZM196 273T249 179T398 34T620 -17Q746 -17 842 34T991 179T1044 398Q1044 524 991 618T842 762T620 813Q494 813 398 763T249 618T196 398Q196 273 249 179ZM304 495T341 570T450 688T620 731Q718 731 789 689T898 571T936 398Q936
300 899 225T790 107T620 65Q522 65 451 107T342 224T304 398Q304 495 341 570Z" />
<glyph unicode="&#xf5;" glyph-name="otilde" d="M625 1226T638 1218T666 1209Q682 1209 688 1221Q702 1255 717 1272T751 1289Q757 1289 760 1288Q786 1282 850 1248Q890 1228 918 1215T974 1195Q992 1191 1001 1191Q1079 1191 1127 1316Q1130 1330 1113 1342T1079
1354Q1066 1354 1062 1346Q1058 1338 1047 1316T1023 1282T997 1270Q983 1270 959 1281T894 1313Q886 1317 857 1331T805 1355T765 1367Q753 1369 749 1369Q720 1369 691 1349T644 1297T625 1237Q625 1226 638 1218ZM196 273T249 179T398 34T620 -17Q746 -17 842
34T991 179T1044 398Q1044 524 991 618T842 762T620 813Q494 813 398 763T249 618T196 398Q196 273 249 179ZM304 495T341 570T450 688T620 731Q718 731 789 689T898 571T936 398Q936 300 899 225T790 107T620 65Q522 65 451 107T342 224T304 398Q304 495 341 570Z"
/>
<glyph unicode="&#xf6;" glyph-name="odieresis" d="M626 1239T650 1215T709 1191Q744 1191 767 1215T791 1273Q791 1308 767 1332T709 1356Q675 1356 651 1332T626 1273Q626 1239 650 1215ZM961 1239T985 1215T1044 1191Q1079 1191 1102 1215T1126 1273Q1126
1308 1102 1332T1044 1356Q1010 1356 986 1332T961 1273Q961 1239 985 1215ZM196 273T249 179T398 34T620 -17Q746 -17 842 34T991 179T1044 398Q1044 524 991 618T842 762T620 813Q494 813 398 763T249 618T196 398Q196 273 249 179ZM304 495T341 570T450 688T620
731Q718 731 789 689T898 571T936 398Q936 300 899 225T790 107T620 65Q522 65 451 107T342 224T304 398Q304 495 341 570Z" />
<glyph unicode="&#xf7;" glyph-name="divide" d="M653 741T676 765T700 823Q700 858 677 881T618 905Q583 905 559 881T534 823Q534 789 558 765T618 741Q653 741 676 765ZM301 530T313 516T347 502H894Q915 502 927 515T939 549Q939 569 927 582T894 596H347Q324
596 313 583T301 551Q301 530 313 516ZM652 193T676 217T700 277Q700 312 677 335T618 359Q583 359 559 335T534 277Q534 243 559 218T618 193Q652 193 676 217Z" />
<glyph unicode="&#xf8;" glyph-name="oslash" d="M933 717T988 622T1044 398Q1044 273 991 179T842 34T620 -17Q537 -17 470 5L410 -121Q400 -142 380 -142Q365 -142 356 -133T347 -108Q347 -101 350 -95L409 29Q309 78 253 173T196 398Q196 524 249 618T398 762T620
813Q700 813 774 791L834 917Q841 934 861 934Q876 934 885 925T894 900Q894 894 891 888L833 767Q933 717 988 622ZM304 301T341 226T447 109L736 713Q685 731 620 731Q522 731 451 689T342 571T304 398Q304 301 341 226ZM718 65T789 107T898 224T936 398Q936
494 900 569T795 686L507 82Q560 65 620 65Q718 65 789 107Z" />
<glyph unicode="&#xf9;" glyph-name="ugrave" d="M674 1132T516 1268Q505 1278 488 1278Q466 1278 448 1260T430 1221Q430 1203 449 1190L528 1140Q713 1024 789 980Q793 976 801 976Q814 976 824 987T834 1011Q834 1026 824 1032Q674 1132 516 1268ZM366 768Q366
782 357 792T332 802Q328 802 320 800L145 765Q127 761 118 751T109 727Q109 710 122 697T155 684Q166 684 172 686L270 706V262Q270 179 304 116T405 18T561 -17Q655 -17 742 26T873 134L878 47Q879 22 892 10T925 -3H932L1118 17Q1136 21 1146 33T1156 61Q1156
76 1146 86T1116 96H1110L962 85V768Q962 782 953 792T928 802Q924 802 916 800L742 765Q723 761 714 751T704 726Q704 709 717 696T751 683Q760 683 769 686L866 706V231Q844 185 795 147T683 87T562 65Q465 65 416 118T366 259V768Z" />
<glyph unicode="&#xfa;" glyph-name="uacute" d="M1074 1519T1055 1539T1012 1559Q995 1559 981 1545L710 1269Q703 1262 703 1254Q703 1245 710 1239T727 1232Q734 1232 738 1236L1060 1470Q1074 1480 1074 1498Q1074 1519 1055 1539ZM366 768Q366 782 357 792T332
802Q328 802 320 800L145 765Q127 761 118 751T109 727Q109 710 122 697T155 684Q166 684 172 686L270 706V262Q270 179 304 116T405 18T561 -17Q655 -17 742 26T873 134L878 47Q879 22 892 10T925 -3H932L1118 17Q1136 21 1146 33T1156 61Q1156 76 1146 86T1116
96H1110L962 85V768Q962 782 953 792T928 802Q924 802 916 800L742 765Q723 761 714 751T704 726Q704 709 717 696T751 683Q760 683 769 686L866 706V231Q844 185 795 147T683 87T562 65Q465 65 416 118T366 259V768Z" />
<glyph unicode="&#xfb;" glyph-name="ucircumflex" d="M673 1278Q666 1271 666 1261Q666 1249 677 1241T703 1232Q720 1232 726 1241L888 1450L1051 1241Q1057 1232 1074 1232Q1088 1232 1099 1240T1111 1261Q1111 1271 1104 1278L920 1561Q916 1567 907 1570T888
1573Q864 1573 857 1561L673 1278ZM366 768Q366 782 357 792T332 802Q328 802 320 800L145 765Q127 761 118 751T109 727Q109 710 122 697T155 684Q166 684 172 686L270 706V262Q270 179 304 116T405 18T561 -17Q655 -17 742 26T873 134L878 47Q879 22 892 10T925
-3H932L1118 17Q1136 21 1146 33T1156 61Q1156 76 1146 86T1116 96H1110L962 85V768Q962 782 953 792T928 802Q924 802 916 800L742 765Q723 761 714 751T704 726Q704 709 717 696T751 683Q760 683 769 686L866 706V231Q844 185 795 147T683 87T562 65Q465 65 416
118T366 259V768Z" />
<glyph unicode="&#xfc;" glyph-name="udieresis" d="M639 1239T663 1215T722 1191Q757 1191 780 1215T804 1273Q804 1308 780 1332T722 1356Q688 1356 664 1332T639 1273Q639 1239 663 1215ZM974 1239T998 1215T1057 1191Q1092 1191 1115 1215T1139 1273Q1139
1308 1115 1332T1057 1356Q1023 1356 999 1332T974 1273Q974 1239 998 1215ZM366 768Q366 782 357 792T332 802Q328 802 320 800L145 765Q127 761 118 751T109 727Q109 710 122 697T155 684Q166 684 172 686L270 706V262Q270 179 304 116T405 18T561 -17Q655 -17
742 26T873 134L878 47Q879 22 892 10T925 -3H932L1118 17Q1136 21 1146 33T1156 61Q1156 76 1146 86T1116 96H1110L962 85V768Q962 782 953 792T928 802Q924 802 916 800L742 765Q723 761 714 751T704 726Q704 709 717 696T751 683Q760 683 769 686L866 706V231Q844
185 795 147T683 87T562 65Q465 65 416 118T366 259V768Z" />
<glyph unicode="&#xfd;" glyph-name="yacute" d="M1063 1519T1044 1539T1001 1559Q984 1559 970 1545L699 1269Q692 1262 692 1254Q692 1245 699 1239T716 1232Q723 1232 727 1236L1049 1470Q1063 1480 1063 1498Q1063 1519 1044 1539ZM150 774T150 732Q150 692
191 692H284Q311 633 399 434Q416 396 478 256T597 -2L543 -141Q532 -170 506 -198T443 -243T371 -261Q303 -261 303 -309Q303 -333 317 -347T371 -361Q478 -361 548 -288T670 -83L973 692H1052Q1094 692 1094 733Q1094 774 1048 774H783Q743 774 743 732Q743 692
782 692H871L643 95L388 692H490Q529 692 529 732Q529 774 488 774H196Q150 774 150 732Z" />
<glyph unicode="&#xfe;" glyph-name="thorn" d="M362 1181L128 1139Q112 1137 104 1126T96 1099Q96 1082 106 1070T136 1057L144 1058L313 1082V-288H223Q204 -288 194 -300T183 -328Q183 -345 194 -357T225 -370H621Q643 -370 655 -357T667 -327Q667 -311 656
-300T625 -288H409V89Q469 37 535 10T693 -17Q808 -17 893 36T1025 184T1071 398Q1071 519 1026 613T897 760T697 813Q608 813 536 779T409 690V1150Q409 1165 399 1173T373 1182L362 1181ZM512 65T409 194V586Q456 653 527 692T695 731Q785 731 848 686T943 566T975
398Q975 307 942 231T844 110T687 65Q512 65 409 194Z" />
<glyph unicode="&#xff;" glyph-name="ydieresis" d="M628 1239T652 1215T711 1191Q746 1191 769 1215T793 1273Q793 1308 769 1332T711 1356Q677 1356 653 1332T628 1273Q628 1239 652 1215ZM963 1239T987 1215T1046 1191Q1081 1191 1104 1215T1128 1273Q1128
1308 1104 1332T1046 1356Q1012 1356 988 1332T963 1273Q963 1239 987 1215ZM150 774T150 732Q150 692 191 692H284Q311 633 399 434Q416 396 478 256T597 -2L543 -141Q532 -170 506 -198T443 -243T371 -261Q303 -261 303 -309Q303 -333 317 -347T371 -361Q478
-361 548 -288T670 -83L973 692H1052Q1094 692 1094 733Q1094 774 1048 774H783Q743 774 743 732Q743 692 782 692H871L643 95L388 692H490Q529 692 529 732Q529 774 488 774H196Q150 774 150 732Z" />
<glyph unicode="&#x2013;" glyph-name="endash" d="M262 503T250 491T238 460Q238 443 250 430T283 417H958Q979 417 991 430T1003 460Q1003 478 991 490T958 503H283Q262 503 250 491Z" />
<glyph unicode="&#x2014;" glyph-name="emdash" d="M178 533T166 521T154 490Q154 473 166 460T199 447H1042Q1063 447 1075 460T1087 490Q1087 508 1075 520T1042 533H199Q178 533 166 521Z" />
<glyph unicode="&#x2018;" glyph-name="quoteleft" d="M731 915T701 938T623 962Q623 1005 659 1058T732 1139Q744 1148 744 1160Q744 1170 736 1178T716 1187Q709 1187 706 1185Q664 1164 621 1117T550 1010T521 895Q521 838 553 806T633 774Q672 774 701 799T731
869Q731 915 701 938Z" />
<glyph unicode="&#x2019;" glyph-name="quoteright" d="M551 1046T581 1023T659 999Q659 956 623 903T550 822Q538 813 538 801Q538 791 546 783T566 774Q573 774 576 776Q618 797 661 844T732 951T761 1066Q761 1123 729 1155T649 1187Q610 1187 581 1162T551
1092Q551 1046 581 1023Z" />
<glyph unicode="&#x201a;" glyph-name="quotesinglbase" d="M518 39T548 16T626 -8Q626 -49 593 -90T517 -162Q505 -171 505 -183Q505 -193 513 -201T533 -210Q540 -210 543 -208Q586 -186 629 -145T700 -50T728 59Q728 116 696 148T616 180Q577 180 548 155T518
85Q518 39 548 16Z" />
<glyph unicode="&#x201c;" glyph-name="quotedblleft" d="M547 915T517 938T439 962Q439 1005 475 1058T548 1139Q560 1148 560 1160Q560 1170 552 1178T532 1187Q525 1187 522 1185Q480 1164 437 1117T366 1010T337 895Q337 838 369 806T449 774Q488 774 517
799T547 869Q547 915 517 938ZM843 915T813 938T735 962Q735 1005 771 1058T844 1139Q856 1148 856 1160Q856 1170 848 1178T828 1187Q821 1187 818 1185Q776 1164 733 1117T662 1010T633 895Q633 838 665 806T745 774Q784 774 813 799T843 869Q843 915 813 938Z"
/>
<glyph unicode="&#x201d;" glyph-name="quotedblright" d="M367 1046T397 1023T475 999Q475 956 439 903T366 822Q354 813 354 801Q354 791 362 783T382 774Q389 774 392 776Q434 797 477 844T548 951T577 1066Q577 1123 545 1155T465 1187Q426 1187 397 1162T367
1092Q367 1046 397 1023ZM663 1046T693 1023T771 999Q771 956 735 903T662 822Q650 813 650 801Q650 791 658 783T678 774Q685 774 688 776Q730 797 773 844T844 951T873 1066Q873 1123 841 1155T761 1187Q722 1187 693 1162T663 1092Q663 1046 693 1023Z" />
<glyph unicode="&#x201e;" glyph-name="quotedblbase" d="M569 187Q569 210 552 223T511 237Q486 237 469 223T454 182L486 -214Q487 -224 493 -229T510 -234Q520 -234 527 -229T535 -214L569 181V187ZM786 187Q786 210 769 223T728 237Q703 237 686 223T671 182L703
-214Q704 -224 711 -229T728 -234Q738 -234 744 -229T752 -214L786 181V187Z" />
<glyph unicode="&#x2022;" glyph-name="bullet" d="M861 510T832 565T749 650T624 681Q551 681 496 652T410 567T380 439Q380 366 410 311T495 227T624 197Q695 197 748 227T831 313T861 439Q861 510 832 565Z" />
<glyph unicode="&#x2039;" glyph-name="guilsinglleft" d="M901 210T913 221T925 248Q925 261 915 274T883 297L326 531L874 765Q907 779 907 805Q907 821 895 833T864 845Q853 845 844 841L250 585Q229 576 218 562T207 530Q207 513 218 499T250 475L854 216Q869
210 882 210Q901 210 913 221Z" />
<glyph unicode="&#x203a;" glyph-name="guilsinglright" d="M298 840T286 829T274 802Q274 789 284 776T316 753L873 519L325 285Q292 271 292 245Q292 229 304 217T335 205Q346 205 355 209L949 465Q970 474 981 488T992 520Q992 537 981 551T949 575L345 834Q330
840 317 840Q298 840 286 829Z" />
</font>
</defs>
</svg>
