<?xml version="1.0" standalone="no"?>
<!DOCTYPE svg PUBLIC "-//W3C//DTD SVG 1.1//EN" "http://www.w3.org/Graphics/SVG/1.1/DTD/svg11.dtd">
<svg xmlns="http://www.w3.org/2000/svg">
<defs >
<font id="Comfortaa" horiz-adv-x="641" ><font-face
    font-family="Comfortaa Light"
    units-per-em="1000"
    panose-1="0 0 0 0 0 0 0 0 0 0"
    ascent="881"
    descent="-234"
    alphabetic="0" />
<glyph unicode=" " horiz-adv-x="293" />
<glyph unicode="!" horiz-adv-x="251" d="M101 172Q89 172 80 180T70 202V751Q70 765 79 773T101 782Q114 782 122 774T131 751V202Q131 189 122 181T101 172ZM101 0Q79 0 65 14T50 51Q50 73 65 87T101 101Q122 101 136 87T151 51Q151 30 137 15T101 0Z" />
<glyph unicode="&quot;" horiz-adv-x="273" d="M200 579Q192 579 186 585T180 599L169 751Q169 765 178 773T200 782Q213 782 221 774T230 751L220 599Q220 591 214 585T200 579ZM79 579Q70 579 64 585T58 599L48 751Q48 765 57 773T79 782Q92 782 100 774T109
751L99 599Q99 591 93 585T79 579Z" />
<glyph unicode="#" horiz-adv-x="729" d="M657 542Q671 542 677 535T684 520Q684 507 676 500T646 492H558L524 299H618Q630 299 636 293T642 276Q642 265 633 257T604 249H515L477 32Q474 17 464 9T439 0Q426 0 420 6T416 28L455 249H233L194 32Q192 18 181 9T157
0Q145 0 138 7T133 28L172 249H78Q66 249 61 256T55 272Q55 286 64 292T87 299H181L215 492H125Q109 492 103 499T97 517Q97 528 106 535T132 542H224L262 758Q264 771 275 780T300 790Q312 790 318 782T323 761L284 542H507L545 758Q547 771 558 780T582 790Q598
790 602 781T605 761L567 542H657ZM464 299L497 492H275L241 299H464Z" />
<glyph unicode="$" horiz-adv-x="572" d="M287 -10Q231 -10 184 7T103 56T50 131Q45 143 49 154T66 169Q77 173 86 168T101 152Q123 104 171 76T287 48Q344 48 385 66T448 118T471 201Q471 269 427 316T290 377Q224 388 176 416T100 488T73 590Q73 648 102 689T182
753T299 775Q347 775 388 759T461 716T507 659Q513 648 510 636T496 619Q486 615 476 618T460 631Q442 662 404 689T299 717Q221 717 177 686T132 587Q132 552 147 520T199 464T299 428Q417 408 474 350T531 201Q531 152 514 113T464 47T387 5T287 -10ZM294 -97Q285
-97 279 -91T273 -71V822Q273 836 279 842T294 848Q303 848 309 842T315 822V-71Q315 -84 309 -90T294 -97Z" />
<glyph unicode="%" horiz-adv-x="859" d="M154 0Q141 0 133 8T124 30Q124 41 131 51L696 769Q702 775 708 778T721 782Q734 782 742 774T751 751Q751 739 746 733L178 11Q165 0 154 0ZM235 397Q182 397 138 423T68 493T42 590Q42 643 68 686T138 756T235 782Q288
782 331 756T401 687T428 590Q428 537 402 493T332 423T235 397ZM235 455Q272 455 302 473T351 523T370 590Q370 627 351 657T302 705T235 724Q200 724 169 706T120 657T101 590Q101 554 119 523T168 474T235 455ZM640 0Q587 0 544 26T474 95T448 192Q448 245 474
289T543 359T640 385Q693 385 737 359T807 289T833 192Q833 139 807 96T737 26T640 0ZM640 58Q677 58 707 76T756 125T775 192Q775 228 757 259T707 308T640 327Q604 327 573 309T524 260T505 192Q505 156 523 126T573 77T640 58Z" />
<glyph unicode="&amp;" horiz-adv-x="712" d="M256 -2Q190 -2 143 21T71 85T45 177Q45 239 80 293T201 413L286 478Q324 507 349 545T374 623Q374 667 345 698T261 730Q215 730 185 701T154 630Q154 596 167 569T206 515L650 71Q661 61 663 52T654 32Q632 10 612
32L163 481Q132 512 113 551T94 630Q94 674 116 709T176 764T261 784Q311 784 349 763T410 706T432 623Q432 586 417 553T375 492T315 437L230 372Q180 333 153 299T116 235T105 174Q105 123 145 88T258 52Q303 52 344 77T430 150L586 315Q597 326 606 327T626
318Q636 310 637 300T627 278L471 112Q418 57 367 28T256 -2Z" />
<glyph unicode="&apos;" horiz-adv-x="156" d="M80 580Q71 580 65 585T59 600L49 752Q49 765 58 773T80 782Q93 782 101 774T110 752L100 600Q100 591 94 586T80 580Z" />
<glyph unicode="(" horiz-adv-x="245" d="M215 -234Q205 -234 198 -229T185 -213Q124 -90 95 31T65 276Q65 398 94 519T185 764Q194 784 215 784Q226 784 235 776T244 756Q244 747 239 737Q124 507 124 275Q124 158 153 43T240 -188Q245 -200 245 -206Q245 -218
236 -226T215 -234Z" />
<glyph unicode=")" horiz-adv-x="245" d="M30 -234Q18 -234 9 -226T0 -206Q0 -200 5 -188Q63 -72 92 43T121 275Q121 507 6 737Q1 747 1 756Q1 768 10 776T30 784Q51 784 60 764Q121 641 150 520T180 276Q180 153 151 32T60 -213Q54 -224 48 -229T30 -234Z" />
<glyph unicode="*" horiz-adv-x="381" d="M119 504Q106 504 98 513T89 535Q89 540 90 544T96 553L183 629L81 640Q65 642 58 651T50 671Q52 685 59 693T80 701Q85 701 90 699T100 694L186 644L166 741Q165 744 165 746T164 752Q164 765 172 773T194 782Q207 782
216 774T225 752Q225 749 225 747T223 741L202 643L299 699Q305 701 309 701Q320 701 330 693T340 670Q340 654 331 648T309 640L207 629L286 561Q300 549 300 535Q300 522 291 513T268 504Q258 504 252 510T240 524L195 620L148 525Q144 515 137 510T119 504Z"
/>
<glyph unicode="+" horiz-adv-x="547" d="M271 122Q258 122 250 130T241 152V325H69Q56 325 48 333T39 355Q39 368 47 376T69 385H241V558Q241 571 249 579T271 588Q285 588 293 580T302 558V385H474Q487 385 495 377T504 355Q504 342 496 334T474 325H302V152Q302
139 294 131T271 122Z" />
<glyph unicode="," horiz-adv-x="213" d="M81 -155Q72 -155 67 -151T62 -138Q62 -127 70 -117T86 -94T94 -64Q94 -45 88 -33T72 -10T57 11T50 38Q50 62 66 74T101 87Q127 87 145 66T163 4Q163 -23 157 -50T139 -102T113 -140T81 -155Z" />
<glyph unicode="-" horiz-adv-x="391" d="M69 243Q56 243 48 251T39 273Q39 287 47 295T69 304H312Q325 304 334 296T343 273Q343 260 334 252T312 243H69Z" />
<glyph unicode="." horiz-adv-x="201" d="M101 -16Q79 -16 65 -2T50 35Q50 57 65 71T101 85Q122 85 136 71T151 35Q151 14 137 -1T101 -16Z" />
<glyph unicode="/" horiz-adv-x="469" d="M70 -81Q54 -81 45 -68T42 -38L365 766Q368 774 375 779T393 785Q413 785 419 770T420 741L98 -64Q94 -74 86 -77T70 -81Z" />
<glyph unicode="0" horiz-adv-x="566" d="M283 0Q209 0 157 47T78 182T50 392Q50 513 77 601T157 736T283 784Q358 784 410 736T489 601T516 392Q516 271 489 183T410 48T283 0ZM283 60Q342 60 380 103T436 221T455 392Q455 488 436 563T379 680T283 723Q225 723
187 681T130 564T111 392Q111 296 129 221T186 103T283 60Z" />
<glyph unicode="1" horiz-adv-x="368" d="M238 0Q225 0 216 8T207 30V709L88 670Q81 667 75 667Q62 667 54 675T45 697Q45 706 49 714T64 726L217 777Q222 779 228 780T238 782Q251 782 259 774T268 752V30Q268 17 260 9T238 0Z" />
<glyph unicode="2" horiz-adv-x="576" d="M106 0Q93 0 84 8T75 30Q75 42 84 52L400 428Q421 450 435 484T450 549Q450 598 429 637T371 698T288 721Q242 721 206 699T148 637T126 549Q126 536 118 528T96 519Q83 519 74 527T65 549Q65 616 94 668T174 751T288
782Q352 782 402 752T481 669T511 549Q511 517 502 489T477 435T440 384L165 61H501Q514 61 522 52T531 30Q531 17 523 9T501 0H106Z" />
<glyph unicode="3" horiz-adv-x="576" d="M291 -9Q225 -9 172 21T87 103T55 221Q55 235 63 244T86 254Q100 254 108 245T116 221Q116 173 139 135T202 74T291 51Q377 51 423 99T470 220Q470 274 447 312T385 371T296 392Q283 392 275 400T266 422Q266 435 274
443T296 452Q336 452 367 471T417 523T436 592Q436 651 398 690T293 730Q248 730 214 713T161 667T142 599Q142 586 134 578T111 569Q97 569 89 578T81 599Q81 653 108 696T183 764T293 789Q351 789 397 763T470 693T497 592Q497 562 482 529T439 468T378 425Q429
412 463 381T514 307T531 220Q531 155 500 103T415 21T291 -9Z" />
<glyph unicode="4" horiz-adv-x="643" d="M446 0Q433 0 425 8T416 30V194H41Q29 194 21 202T11 221T16 242L421 770Q426 776 431 779T446 782Q459 782 467 774T476 751V248H568Q581 248 589 243T598 220Q598 211 590 203T568 194H476V30Q476 17 468 9T446 0ZM70
218L65 248H416V690L428 682L70 218Z" />
<glyph unicode="5" horiz-adv-x="626" d="M318 0Q246 0 189 33T99 124T65 253Q65 267 73 275T95 284Q108 284 117 276T126 253Q126 199 151 156T220 87T318 61Q373 61 416 86T484 155T510 253Q510 308 485 351T416 420T318 446H136Q123 446 115 454T106 476V752Q106
765 114 773T136 782H500Q513 782 522 774T531 752Q531 739 522 730T500 721H166V506H318Q390 506 447 473T537 383T571 253Q571 181 538 124T447 34T318 0Z" />
<glyph unicode="6" horiz-adv-x="577" d="M299 0Q233 0 180 30T96 114T65 233Q65 300 96 352T180 436T299 467Q366 467 418 436T501 353T532 233Q532 167 502 114T419 31T299 0ZM299 59Q349 59 388 82T450 144T473 233Q473 283 450 322T388 385T299 408Q250 408
210 385T147 323T124 233Q124 184 147 145T210 82T299 59ZM92 346L348 765Q359 782 376 782Q388 782 396 775T406 757T402 735L222 444L92 346Z" />
<glyph unicode="7" horiz-adv-x="583" d="M176 0Q163 0 154 8T145 30Q145 35 147 39T152 51L459 721H86Q73 721 64 730T55 752Q55 765 64 773T86 782H511Q524 782 532 774T541 752Q541 748 540 744T536 735L204 18Q196 0 176 0Z" />
<glyph unicode="8" horiz-adv-x="601" d="M301 -7Q234 -7 181 24T96 109T65 231Q65 297 96 348T180 430T301 460Q369 460 422 430T506 349T536 231Q536 163 505 109T421 24T301 -7ZM301 47Q350 47 389 71T450 137T473 231Q474 281 452 320T390 383T301 406Q252
406 213 383T151 321T128 231Q128 179 150 137T211 71T301 47ZM301 406Q247 406 204 431T136 499T111 598Q111 650 136 691T204 756T301 781Q356 782 398 758T466 693T490 598Q490 543 465 500T398 431T301 406ZM301 462Q338 462 367 480T415 528T433 598Q434 634
417 663T369 708T301 725Q245 725 207 689T168 598Q167 540 205 501T301 462Z" />
<glyph unicode="9" horiz-adv-x="577" d="M279 782Q345 782 397 752T481 669T512 549Q512 483 481 430T398 346T278 315Q212 315 159 346T76 430T45 549Q45 616 75 668T159 751T279 782ZM278 723Q229 723 190 700T127 638T104 549Q104 500 127 460T189 397T279
374Q328 374 367 397T430 460T453 550Q453 599 430 638T368 700T278 723ZM485 436L229 17Q218 0 201 0Q189 0 181 7T171 25T175 47L355 338L485 436Z" />
<glyph unicode=":" horiz-adv-x="195" d="M344 435Q323 435 308 449T293 486Q293 507 307 521T344 536Q366 536 380 521T394 486Q394 464 380 450T344 435ZM341 -16Q319 -16 305 -2T290 35Q290 57 305 71T341 85Q362 85 376 71T391 35Q391 14 377 -1T341 -16Z" />
<glyph unicode=";" horiz-adv-x="204" d="M81 -155Q72 -155 67 -151T62 -138Q62 -127 70 -117T86 -94T94 -64Q94 -45 88 -33T72 -10T57 11T50 38Q50 62 66 74T101 87Q127 87 145 66T163 4Q163 -23 157 -50T139 -102T113 -140T81 -155ZM344 435Q323 435 308 449T293
486Q293 507 307 521T344 536Q366 536 380 521T394 486Q394 464 380 450T344 435Z" />
<glyph unicode="&lt;" horiz-adv-x="547" d="M460 84L57 327Q39 336 39 354Q39 370 57 382L460 625Q473 632 489 627T505 601Q505 584 489 574L89 334V377L489 138Q505 128 505 111Q505 99 497 91T479 81T460 84Z" />
<glyph unicode="=" horiz-adv-x="508" d="M70 446Q57 446 49 454T40 476Q40 489 48 497T70 506H435Q448 506 456 498T465 476Q465 463 457 455T435 446H70ZM70 202Q57 203 49 211T40 233Q40 246 48 254T70 263H435Q448 263 456 255T465 233Q465 220 457 212T435
203L70 202Z" />
<glyph unicode="&gt;" horiz-adv-x="547" d="M84 84Q76 79 66 81T47 91T39 111Q39 128 55 138L455 377V334L55 574Q39 584 39 601Q39 621 55 626T84 625L487 382Q505 370 505 354Q505 336 487 327L84 84Z" />
<glyph unicode="?" horiz-adv-x="547" d="M272 172Q259 172 251 181T242 203Q242 244 261 290T310 367Q343 400 374 428T425 492T445 581Q445 626 423 661T362 716T272 737Q222 737 183 715T122 655T100 565Q100 552 92 544T70 536Q57 536 48 544T39 565Q39 633
69 685T151 767T272 797Q340 797 392 768T475 689T505 575Q505 519 485 481T430 411T357 340Q324 307 314 271T303 203Q303 190 295 181T272 172ZM272 0Q250 0 236 15T222 51Q222 72 236 86T272 101Q293 101 308 87T323 51Q323 29 308 15T272 0Z" />
<glyph unicode="@" horiz-adv-x="1094" d="M548 -233Q437 -233 344 -196T183 -91T78 70T41 274Q41 386 78 479T183 640T344 745T548 782Q660 782 753 745T914 640T1019 479T1056 274Q1056 184 1032 115T966 5T867 -35Q819 -35 788 -4T757 75V107Q738 78 705 55T631
18T548 5Q470 5 409 39T314 135T279 274Q279 353 313 414T409 509T548 544Q627 544 687 510T782 414T817 274V95Q817 57 831 41T867 25Q905 25 934 57T979 145T996 274Q996 372 963 454T870 596T728 689T548 722Q450 722 368 689T226 596T134 454T101 274Q101 176
133 94T226 -48T368 -140T548 -173Q595 -173 646 -162T732 -135Q752 -125 765 -130T778 -156Q778 -172 749 -190T668 -220T548 -233ZM548 65Q609 65 656 92T730 166T757 274Q757 336 730 383T656 457T548 484Q487 484 440 457T366 383T339 274Q339 213 366 166T440
92T548 65Z" />
<glyph unicode="A" horiz-adv-x="703" d="M49 0Q30 0 23 15T22 43L325 760Q333 781 354 781Q374 781 383 760L687 43Q695 29 686 15T660 0Q650 0 644 4T632 19L338 720H370L77 19Q73 9 66 5T49 0ZM123 196L147 250H563L586 196H123Z" />
<glyph unicode="B" horiz-adv-x="675" d="M139 0Q122 0 111 7T100 30V751Q100 765 108 773T130 781H375Q431 781 477 757T551 690T579 592Q579 534 549 491T469 425Q537 406 578 355T620 227Q620 161 591 110T509 29T390 0H139ZM160 60H390Q440 60 478 81T538
140T560 227Q560 275 538 312T478 370T390 391H160V60ZM160 451H375Q438 451 478 489T519 592Q519 654 479 687T375 721H160V451Z" />
<glyph unicode="C" horiz-adv-x="767" d="M451 -10Q371 -10 301 21T176 108T91 236T60 391Q60 472 90 544T173 672T298 759T451 791Q520 791 582 769T698 702Q707 695 707 683T699 661T677 651Q673 651 669 652T661 656T652 663Q612 699 561 715T451 731Q384 731
324 704T218 629T146 520T120 391Q120 321 146 259T217 150T323 77T451 50Q510 50 561 68T658 123Q666 130 677 128T696 118T704 97Q704 91 703 86T697 76Q648 27 584 9T451 -10Z" />
<glyph unicode="D" horiz-adv-x="761" d="M130 0Q117 0 109 8T100 30V751Q100 765 108 773T130 781H310Q396 781 467 753T591 672T672 548T701 391Q701 305 673 234T592 110T468 29T310 0H130ZM160 54H310Q407 54 481 98T598 218T641 391Q641 488 599 563T482
683T310 727H160V54Z" />
<glyph unicode="E" horiz-adv-x="686" d="M130 0Q117 0 109 8T100 30V751Q100 764 108 772T130 781H611Q623 781 632 773T641 751Q641 739 632 730T611 721H160V421H491Q504 421 512 413T521 391Q521 378 513 369T491 360H160V60H611Q623 60 632 51T641 30Q641
17 632 9T611 0H130Z" />
<glyph unicode="F" horiz-adv-x="625" d="M69 0Q56 0 48 8T39 30V751Q39 764 47 772T69 781H550Q562 781 571 773T580 751Q580 739 571 730T550 721H99V421H430Q443 421 451 413T460 391Q460 378 452 369T430 360H99V30Q99 17 91 9T69 0Z" />
<glyph unicode="G" horiz-adv-x="767" d="M451 -10Q371 -10 301 21T176 108T91 236T60 391Q60 472 90 544T173 672T298 759T451 791Q520 791 582 769T698 702Q707 695 707 683T699 661T677 651Q673 651 669 652T661 656T652 663Q612 699 561 715T451 731Q384 731
324 704T218 629T146 520T120 391Q120 321 146 259T217 150T323 77T451 50Q510 50 561 68T658 123Q666 130 677 128T696 118T704 97Q704 91 703 86T697 76Q648 27 584 9T451 -10ZM704 97L644 110V326H476Q463 326 455 334T446 354Q446 365 454 372T476 380H674Q688
380 696 372T704 351V97Z" />
<glyph unicode="H" horiz-adv-x="825" d="M130 0Q117 0 109 8T100 30V751Q100 764 108 772T130 781Q143 781 151 773T160 751V421H665V751Q665 764 673 772T695 781Q707 781 716 773T725 751V30Q725 17 716 9T695 0Q682 0 674 8T665 30V367H160V30Q160 17 152 9T130 0Z" />
<glyph unicode="I" horiz-adv-x="260" d="M130 0Q117 0 109 8T100 30V751Q100 764 108 772T130 781Q143 781 151 773T160 751V30Q160 17 152 9T130 0Z" />
<glyph unicode="J" horiz-adv-x="606" d="M276 -10Q212 -10 160 21T76 105T45 220Q45 234 53 242T75 250Q88 250 96 242T105 220Q105 173 128 135T191 73T276 50Q323 50 361 73T423 135T446 220V751Q446 764 455 772T476 781Q489 781 497 773T506 751V220Q506
157 475 105T392 22T276 -10Z" />
<glyph unicode="K" horiz-adv-x="647" d="M130 0Q118 0 109 8T100 30V751Q100 764 109 772T130 781Q143 781 151 773T160 751V384L548 772Q553 777 558 779T571 781Q584 781 592 773T601 752T592 729L305 442L595 48Q603 37 601 26T591 7T572 0Q555 0 546 13L261
398L160 297V30Q160 17 152 9T130 0Z" />
<glyph unicode="L" horiz-adv-x="626" d="M130 0Q118 0 109 8T100 30V751Q100 764 109 772T130 781Q143 781 151 773T160 751V54H571Q585 54 593 47T601 27Q601 15 593 8T571 0H130Z" />
<glyph unicode="M" horiz-adv-x="981" d="M130 0Q117 0 109 8T100 30V751Q100 764 108 772T130 781Q150 781 157 766L511 67H476L825 766Q834 781 852 781Q865 781 873 773T881 751V30Q881 17 873 9T852 0Q839 0 830 8T821 30V679L836 674L517 24Q510 10 491 10Q473
10 463 29L140 674L160 679V30Q160 17 152 9T130 0Z" />
<glyph unicode="N" horiz-adv-x="821" d="M130 0Q117 0 109 8T100 30V751Q100 764 108 772T130 781Q144 781 153 771L661 110V751Q661 764 669 772T691 781Q703 781 712 773T721 751V30Q721 17 712 9T691 0Q684 0 679 2T669 9L160 671V30Q160 17 152 9T130 0Z" />
<glyph unicode="O" horiz-adv-x="921" d="M461 -10Q375 -10 302 20T175 104T90 232T60 391Q60 477 90 549T174 676T302 761T461 791Q547 791 619 761T746 677T831 550T861 391Q861 305 831 232T747 105T620 20T461 -10ZM461 50Q533 50 595 75T703 147T775 256T801
391Q801 463 776 525T704 633T595 705T461 731Q388 731 326 706T218 634T146 525T120 391Q120 318 145 256T217 148T326 76T461 50Z" />
<glyph unicode="P" horiz-adv-x="605" d="M130 0Q117 0 109 8T100 30V751Q100 765 108 773T130 781H330Q403 781 459 749T548 661T580 531Q580 458 548 401T460 312T330 280H160V30Q160 17 152 9T130 0ZM160 340H330Q386 340 428 364T495 432T520 531Q520 587
496 629T429 696T330 721H160V340Z" />
<glyph unicode="Q" horiz-adv-x="921" d="M770 9L548 229Q539 238 539 249T548 270Q557 279 568 279T589 270L811 50Q820 41 820 30T811 9Q802 0 791 0T770 9ZM461 -10Q375 -10 302 20T175 104T90 232T60 391Q60 477 90 549T174 676T302 761T461 791Q547 791 619
761T746 677T831 550T861 391Q861 305 831 232T747 105T620 20T461 -10ZM461 50Q533 50 595 75T703 147T775 256T801 391Q801 463 776 525T704 633T595 705T461 731Q388 731 326 706T218 634T146 525T120 391Q120 318 145 256T217 148T326 76T461 50Z" />
<glyph unicode="R" horiz-adv-x="608" d="M130 0Q117 0 109 8T100 30V751Q100 765 108 773T130 781H321Q394 781 450 751T539 667T571 544Q571 476 539 423T451 340T321 310H160V30Q160 17 152 9T130 0ZM550 0Q539 0 534 4T523 16L324 334L386 348L575 46Q588
26 581 13T550 0ZM160 370H321Q377 370 419 392T486 454T511 544Q511 596 487 636T420 698T321 721H160V370Z" />
<glyph unicode="S" horiz-adv-x="644" d="M334 -10Q271 -10 219 7T128 57T68 134Q62 146 67 157T86 172Q97 176 108 171T125 155Q143 123 172 99T242 63T334 50Q391 50 432 69T496 125T519 215Q519 281 472 326T327 385Q215 401 152 457T89 595Q89 654 118 698T201
766T325 791Q377 791 421 774T498 730T549 672Q556 661 553 649T536 631Q525 627 514 630T496 644Q482 665 460 685T405 718T325 731Q243 731 196 694T149 589Q149 553 168 524T230 473T337 441Q466 419 522 362T579 215Q579 163 562 121T512 50T434 6T334 -10Z"
/>
<glyph unicode="T" horiz-adv-x="650" d="M325 0Q312 0 304 8T295 30V781H355V30Q355 17 347 9T325 0ZM42 727Q30 727 23 734T15 754Q15 766 22 773T42 781H608Q620 781 627 774T635 754Q635 742 628 735T608 727H42Z" />
<glyph unicode="U" horiz-adv-x="801" d="M400 -16Q312 -16 245 18T139 114T100 255V751Q100 765 108 773T130 781Q144 781 152 773T160 751V255Q160 193 190 146T275 71T400 44Q471 44 525 71T610 145T641 255V751Q641 765 649 773T671 781Q685 781 693 773T701
751V255Q701 176 663 115T556 19T400 -16Z" />
<glyph unicode="V" horiz-adv-x="702" d="M352 0Q333 0 325 19L25 732Q15 755 24 768T51 781Q70 781 80 760L368 71H339L623 756Q628 770 636 775T656 781Q674 781 680 766T678 732L379 19Q374 8 367 4T352 0Z" />
<glyph unicode="W" horiz-adv-x="938" d="M268 0Q257 0 249 8T237 26L30 736Q25 754 33 767T58 781Q68 781 75 777T87 758L280 90H256L440 732Q442 740 450 745T468 751Q478 751 486 746T497 731L681 90H657L850 761Q855 781 879 781Q896 781 903 768T906 736L700
26Q696 13 688 7T669 0Q657 0 649 7T638 26L456 670H480L300 26Q296 14 288 7T268 0Z" />
<glyph unicode="X" horiz-adv-x="701" d="M75 0Q63 0 55 7T45 26T52 49L319 418L348 439L585 768Q595 781 610 781Q624 781 631 773T639 753T635 734L388 393L360 373L98 10Q89 0 75 0ZM629 0Q624 0 617 2T606 10L346 370L319 389L70 734Q63 744 63 755T71 773T91
781Q106 781 116 768L360 431L381 420L650 49Q658 40 658 29T650 9T629 0Z" />
<glyph unicode="Y" horiz-adv-x="633" d="M317 0Q304 0 296 8T287 30V292L11 734Q4 746 5 756T14 774T34 781Q42 781 47 778T58 769L339 311H295L572 762Q579 773 585 777T601 781Q613 781 620 774T628 756T623 734L347 292V30Q347 17 339 9T317 0Z" />
<glyph unicode="Z" horiz-adv-x="711" d="M75 0Q62 0 54 8T45 27T52 49L587 727H75Q62 727 54 733T45 754Q45 765 53 773T75 781H636Q650 781 657 773T666 753T661 734L122 54H636Q648 54 657 48T666 27Q666 17 657 9T636 0H75Z" />
<glyph unicode="[" horiz-adv-x="288" d="M95 -234Q82 -234 74 -226T65 -204V752Q65 765 73 773T95 782H257Q270 782 279 774T288 752Q288 739 279 730T257 721H125V-173H257Q270 -173 279 -182T288 -204Q288 -217 279 -225T257 -234H95Z" />
<glyph unicode="\" horiz-adv-x="469" d="M401 -81Q392 -81 385 -77T374 -64L49 738Q46 744 46 751Q46 765 55 773T77 782Q85 782 93 778T104 765L428 -38Q431 -44 431 -51Q431 -64 423 -72T401 -81Z" />
<glyph unicode="]" horiz-adv-x="288" d="M31 -234Q18 -234 9 -226T0 -204Q0 -191 9 -182T31 -173H163V721H31Q18 721 9 730T0 752Q0 765 9 773T31 782H193Q206 782 214 774T223 752V-204Q223 -217 215 -225T193 -234H31Z" />
<glyph unicode="^" horiz-adv-x="469" d="M77 479Q64 479 55 487T46 509Q46 514 47 517T50 524L214 770Q224 782 239 782Q247 782 253 779T263 770L427 524Q431 519 431 509Q431 496 423 488T401 479Q384 479 377 489L239 697L101 489Q91 479 77 479Z" />
<glyph unicode="_" horiz-adv-x="469" d="M-4 -62Q-17 -62 -26 -53T-35 -31Q-35 -18 -26 -9T-4 0H482Q495 0 503 -9T512 -31Q512 -44 504 -53T482 -62H-4Z" />
<glyph unicode="`" horiz-adv-x="273" d="M200 599Q190 599 179 607L56 730Q48 738 48 751Q48 765 57 773T79 782Q91 782 100 773L223 650Q230 643 230 630Q230 617 222 608T200 599Z" />
<glyph unicode="a" horiz-adv-x="679" d="M340 -6Q260 -6 197 30T97 130T60 273Q60 353 96 416T196 516T340 553Q420 553 483 517T582 417T619 273L594 233Q594 165 561 111T470 26T340 -6ZM340 50Q403 50 452 79T530 159T559 273Q559 337 531 387T453 467T340
497Q278 497 228 468T149 388T120 273Q120 210 149 160T228 80T340 50ZM590 0Q576 0 568 8T559 30V213L578 273H619V30Q619 17 611 9T590 0Z" />
<glyph unicode="b" horiz-adv-x="709" d="M369 -6Q291 -6 228 30T129 128T90 268V751Q90 765 98 773T120 781Q134 781 142 773T150 751V439Q182 491 239 522T369 553Q449 553 512 517T612 417T649 274Q649 194 613 131T513 31T369 -6ZM369 50Q432 50 481 79T560
159T589 274Q589 338 560 388T482 467T369 497Q307 497 257 468T179 388T150 274Q150 210 178 160T257 80T369 50Z" />
<glyph unicode="c" horiz-adv-x="593" d="M332 -6Q254 -6 193 31T96 131T60 273Q60 353 93 416T184 515T317 552Q381 552 434 528T526 453Q534 443 532 432T519 414Q510 407 499 408T480 420Q416 496 317 496Q258 496 214 467T145 388T120 273Q120 210 147 160T221
80T332 50Q373 50 409 62T473 99Q482 107 493 108T512 101Q522 92 522 81T514 61Q441 -6 332 -6Z" />
<glyph unicode="d" horiz-adv-x="709" d="M340 -6Q260 -6 197 30T97 130T60 274Q60 354 96 417T196 516T340 553Q412 553 469 522T559 439V751Q559 765 567 773T589 781Q603 781 611 773T619 751V268Q618 190 581 128T482 30T340 -6ZM340 50Q403 50 452 79T530
159T559 274Q559 338 531 388T453 467T340 497Q278 497 228 468T149 388T120 274Q120 210 149 160T228 80T340 50Z" />
<glyph unicode="e" horiz-adv-x="609" d="M332 -5Q253 -5 192 30T95 129T60 273Q60 355 93 417T184 516T317 552Q391 552 448 518T537 423T569 283Q569 270 561 263T540 255H100V307H556L512 274Q514 339 490 389T422 467T317 496Q260 496 216 468T146 389T120
273Q120 208 147 158T222 80T332 51Q371 51 410 64T473 100Q481 108 492 108T512 102Q523 93 523 82T514 62Q482 33 431 14T332 -5Z" />
<glyph unicode="f" horiz-adv-x="365" d="M165 0Q152 0 144 8T135 30V548Q135 616 156 668T221 751T335 781Q349 781 357 774T365 754Q365 742 357 735T335 727Q284 727 254 704T210 640T196 548V30Q196 17 188 9T165 0ZM57 473Q45 473 38 480T30 500Q30 512 37
519T57 527H328Q340 527 347 520T355 500Q355 488 348 481T328 473H57Z" />
<glyph unicode="g" horiz-adv-x="679" d="M340 -6Q258 -6 195 30T96 129T60 273Q60 355 97 418T197 517T340 553Q422 553 484 517T583 418T619 273L584 233Q584 163 553 109T467 25T340 -6ZM344 -209Q261 -209 203 -178T106 -99Q98 -89 98 -78T108 -59Q118 -52
131 -54T152 -67Q183 -104 231 -128T344 -153Q406 -153 454 -123T531 -41T559 77V236L586 273H619V77Q619 -4 583 -69T485 -171T344 -209ZM340 50Q404 50 453 78T531 157T559 273Q559 339 531 389T454 468T340 497Q276 497 226 469T148 390T120 273Q120 208 148
158T226 79T340 50Z" />
<glyph unicode="h" horiz-adv-x="673" d="M120 240Q107 240 99 248T90 270V751Q90 765 98 773T120 781Q134 781 142 773T150 751V270Q150 257 142 249T120 240ZM563 0Q550 0 542 8T533 30V299Q533 365 508 408T439 472T340 494Q286 494 243 474T175 417T150 336H100Q104
398 137 447T223 525T340 554Q412 554 469 525T560 439T593 299V30Q593 17 585 9T563 0ZM120 0Q107 0 99 8T90 30V517Q90 531 98 539T120 547Q134 547 142 539T150 517V30Q150 17 142 9T120 0Z" />
<glyph unicode="i" horiz-adv-x="280" d="M140 0Q127 0 119 8T110 30V517Q110 531 118 539T140 547Q154 547 162 539T170 517V30Q170 17 162 9T140 0ZM395 662Q376 662 363 675T349 709Q349 732 363 743T396 755Q413 755 427 744T442 709Q442 689 429 676T395 662Z" />
<glyph unicode="j" horiz-adv-x="284" d="M-59 -234Q-72 -234 -81 -226T-90 -204Q-90 -190 -81 -182T-59 -173Q-8 -173 30 -151T91 -90T113 -1V517Q113 531 121 539T143 547Q157 547 165 539T174 517V-1Q174 -69 144 -121T62 -204T-59 -234ZM142 662Q123 662 110
675T96 709Q96 732 110 743T143 755Q160 755 174 744T189 709Q189 689 176 676T142 662Z" />
<glyph unicode="k" horiz-adv-x="574" d="M130 171L94 211L460 544Q470 552 479 552T498 542Q507 532 507 522T497 504L130 171ZM120 0Q107 0 99 8T90 30V751Q90 765 98 773T120 781Q134 781 142 773T150 751V30Q150 17 142 9T120 0ZM499 5Q489 -4 479 -3T460
9L223 299L266 334L503 44Q511 34 511 24T499 5Z" />
<glyph unicode="l" horiz-adv-x="270" d="M200 0Q162 0 133 21T87 79T70 165V751Q70 765 78 773T100 781Q114 781 122 773T130 751V165Q130 119 149 90T200 60H225Q236 60 243 52T250 30Q250 17 242 9T220 0H200Z" />
<glyph unicode="m" horiz-adv-x="953" d="M843 0Q830 0 822 8T813 30V319Q813 396 773 445T667 494Q598 494 555 449T513 326H453Q455 395 483 446T559 525T667 554Q728 554 774 524T846 441T873 319V30Q873 17 865 9T843 0ZM120 0Q107 0 99 8T90 30V517Q90 531
98 539T120 547Q134 547 142 539T150 517V30Q150 17 142 9T120 0ZM483 0Q470 0 462 8T453 30V319Q453 396 413 445T307 494Q238 494 194 450T150 336H100Q103 400 130 449T204 526T307 554Q368 554 414 524T486 441T513 319V30Q513 17 505 9T483 0Z" />
<glyph unicode="n" horiz-adv-x="673" d="M563 0Q550 0 542 8T533 30V299Q533 365 508 408T439 472T340 494Q286 494 243 474T175 417T150 336H100Q104 398 137 447T223 525T340 554Q412 554 469 525T560 439T593 299V30Q593 17 585 9T563 0ZM120 0Q107 0 99 8T90
30V517Q90 531 98 539T120 547Q134 547 142 539T150 517V30Q150 17 142 9T120 0Z" />
<glyph unicode="o" horiz-adv-x="679" d="M340 -6Q260 -6 197 30T97 130T60 273Q60 353 96 416T196 516T340 553Q420 553 483 517T582 417T619 273Q619 194 583 131T483 31T340 -6ZM340 50Q403 50 452 79T530 159T559 274Q559 337 531 387T453 467T340 497Q278
497 228 468T149 388T120 273Q120 210 149 160T228 80T340 50Z" />
<glyph unicode="p" horiz-adv-x="709" d="M120 -234Q107 -234 99 -226T90 -204V279Q92 358 128 419T228 517T369 553Q449 553 512 517T612 417T649 273Q649 194 613 131T513 31T369 -6Q297 -6 240 25T150 108V-204Q150 -217 142 -225T120 -234ZM369 50Q432 50
481 79T560 159T589 273Q589 337 560 387T482 467T369 497Q307 497 257 468T179 388T150 273Q150 210 178 160T257 80T369 50Z" />
<glyph unicode="q" horiz-adv-x="709" d="M590 -234Q576 -234 568 -226T559 -204V108Q527 56 470 25T340 -6Q260 -6 197 30T97 130T60 273Q60 353 96 416T196 516T340 553Q419 553 481 517T581 420T619 279V-204Q619 -217 611 -225T590 -234ZM340 50Q403 50 452
79T530 159T559 273Q559 337 531 387T453 467T340 497Q278 497 228 468T149 388T120 273Q120 210 149 160T228 80T340 50Z" />
<glyph unicode="r" horiz-adv-x="438" d="M110 334Q116 398 145 447T220 525T322 553Q360 553 381 544T397 512Q394 497 383 494T357 493T322 496Q272 496 233 475T172 418T150 334H110ZM120 0Q107 0 99 8T90 30V517Q90 531 98 539T120 547Q134 547 142 539T150
517V30Q150 17 142 9T120 0Z" />
<glyph unicode="s" horiz-adv-x="536" d="M276 -6Q224 -6 167 13T72 77Q64 87 65 98T78 118Q88 125 99 123T118 112Q147 78 188 65T279 51Q363 51 398 81T433 151Q433 190 396 215T280 252Q180 266 132 306T84 399Q84 449 109 483T177 535T277 553Q345 553 392
529T468 463Q476 453 474 442T458 423Q448 418 437 420T418 432Q393 464 358 480T275 497Q212 497 177 470T142 405Q142 379 156 360T204 327T292 305Q367 295 410 271T472 216T491 148Q491 101 461 66T382 13T276 -6Z" />
<glyph unicode="t" horiz-adv-x="403" d="M314 0Q259 1 216 25T149 93T125 192V690Q125 704 133 712T155 721Q169 721 177 713T186 690V192Q186 134 222 98T315 61H337Q351 61 359 53T368 30Q368 17 360 9T337 0H314ZM47 473Q35 473 28 480T20 500Q20 512 27 519T47
527H318Q330 527 337 520T345 500Q345 488 338 481T318 473H47Z" />
<glyph unicode="u" horiz-adv-x="673" d="M333 -7Q261 -7 204 22T114 109T80 248V517Q80 530 88 538T110 547Q123 547 131 539T140 517V248Q140 183 165 140T234 75T333 53Q387 53 430 74T498 130T523 211H573Q569 149 536 100T451 22T333 -7ZM553 0Q540 0 532
8T523 30V517Q523 531 531 539T553 547Q567 547 575 539T583 517V30Q583 17 575 9T553 0Z" />
<glyph unicode="v" horiz-adv-x="557" d="M278 -1Q259 -1 250 20L22 508Q18 519 22 529T37 545Q48 550 58 546T74 531L298 47H261L481 532Q486 543 497 547T520 546Q531 541 535 531T535 509L310 20Q300 -1 278 -1Z" />
<glyph unicode="w" horiz-adv-x="749" d="M212 0Q202 0 195 5T184 19L22 504Q18 526 24 536T45 547Q53 547 61 543T73 529L221 83H208L344 523Q347 534 355 540T374 547Q385 547 392 541T404 523L544 83H526L674 529Q682 547 702 547Q720 547 726 533T726 504L565
19Q562 10 555 5T536 0Q526 0 518 5T508 19L365 463H378L240 19Q236 9 229 5T212 0Z" />
<glyph unicode="x" horiz-adv-x="542" d="M470 0Q458 0 451 4T436 19L264 247L239 266L64 497Q56 507 57 518T66 538T87 547Q100 547 109 538L276 316L303 295L488 49Q501 33 498 22T485 6T470 0ZM65 0Q52 0 44 8T35 27T42 49L236 290L271 246L86 9Q80 0 65 0ZM290
262L254 306L436 529Q444 538 451 542T467 547Q481 547 488 539T495 519T487 497L290 262Z" />
<glyph unicode="y" horiz-adv-x="554" d="M181 -237Q175 -237 167 -234Q140 -223 152 -197L488 531Q500 556 525 546Q552 535 540 509L204 -219Q195 -237 181 -237ZM287 13Q274 7 264 10T248 26L29 506Q23 519 26 529T42 545Q55 551 65 548T81 532L300 52Q306
39 303 29T287 13Z" />
<glyph unicode="z" horiz-adv-x="555" d="M130 31L71 46L464 536L506 503L130 31ZM92 0Q65 0 65 27Q65 54 92 54H483Q510 54 510 27Q510 0 483 0H92ZM92 493Q65 493 65 520Q65 547 92 547H483Q510 547 510 520Q510 493 483 493H92Z" />
<glyph unicode="{" horiz-adv-x="369" d="M338 -234Q187 -234 187 -83V152Q187 243 96 243Q83 243 74 251T65 273Q65 287 74 295T96 304Q187 304 187 395V630Q187 782 338 782Q352 782 360 774T369 751Q369 738 361 730T338 721Q248 721 248 630V395Q248 356 237
326T203 273Q248 228 248 152V-83Q248 -173 338 -173Q352 -173 360 -182T369 -204Q369 -217 361 -225T338 -234Z" />
<glyph unicode="|" horiz-adv-x="391" d="M193 -234Q180 -234 172 -226T163 -204V752Q163 765 171 773T193 782Q206 782 215 774T224 752V-204Q224 -217 215 -225T193 -234Z" />
<glyph unicode="}" horiz-adv-x="369" d="M31 -234Q18 -234 9 -226T0 -204Q0 -191 9 -182T31 -173Q121 -173 121 -83V152Q121 228 166 273Q144 296 133 326T121 395V630Q121 721 31 721Q18 721 9 729T0 751Q0 765 9 773T31 782Q182 782 182 630V395Q182 304 273
304Q286 304 295 296T304 273Q304 260 295 252T273 243Q182 243 182 152V-83Q182 -234 31 -234Z" />
<glyph unicode="~" horiz-adv-x="469" d="M326 310Q294 310 272 321T232 345Q212 358 200 363T175 368Q155 368 135 358T98 327Q91 317 79 315T58 319Q46 326 44 337T49 359Q75 391 107 408T175 426Q205 426 227 415T265 393Q281 382 294 375T326 368Q344 368
357 373T381 390Q389 399 400 402T420 401Q434 394 437 383T432 361Q394 310 326 310Z" />
<glyph unicode="&#xa0;" horiz-adv-x="293" />
<glyph unicode="&#xa1;" horiz-adv-x="251" d="M151 376Q162 376 171 368T181 346V-203Q181 -216 173 -225T151 -234Q138 -234 129 -225T120 -203V346Q120 359 129 367T151 376ZM151 548Q172 548 186 533T201 497Q201 476 187 462T151 447Q130 447 115 461T100
497Q100 519 114 533T151 548Z" />
<glyph unicode="&#xa2;" horiz-adv-x="593" d="M177 -98Q162 -98 156 -86T157 -55L414 629Q422 650 443 650Q457 650 463 638T464 611L207 -74Q199 -98 177 -98ZM332 -6Q254 -6 193 31T96 131T60 273Q60 353 93 416T184 515T317 552Q381 552 434 528T526 453Q534
443 532 432T519 414Q510 407 499 408T480 420Q416 496 317 496Q258 496 214 467T145 388T120 273Q120 210 147 160T221 80T332 50Q373 50 409 62T473 99Q482 107 493 108T512 101Q522 92 522 81T514 61Q441 -6 332 -6Z" />
<glyph unicode="&#xa3;" horiz-adv-x="508" d="M111 0Q98 0 90 9T81 30Q81 34 83 42Q114 113 127 182T141 321H70Q57 321 49 330T40 351Q40 364 48 372T70 381H136Q119 432 107 469T88 535T81 592Q81 645 107 688T176 757T273 783Q314 783 347 769T409 727Q420
717 430 704T440 678Q440 665 432 657T410 648Q395 648 388 658Q366 690 338 706T273 722Q238 722 208 705T159 658T141 592Q141 562 148 534T168 470T197 381H354Q367 381 375 373T384 351Q384 339 376 330T354 321H202Q202 258 191 193T156 60H415Q423 77 432
93T449 126Q452 133 458 136T475 140Q488 140 496 132T505 110Q505 102 502 96L463 18Q459 9 451 5T435 0H111Z" />
<glyph unicode="&#xa4;" horiz-adv-x="480" d="M78 174Q64 174 55 184T45 208Q45 221 55 231L101 275Q73 319 73 367T99 462L55 508Q45 518 45 532Q45 546 54 555T78 565Q91 565 101 557L145 509Q190 538 240 537T332 511L378 556Q384 560 389 562T402 565Q416
565 425 556T435 532Q435 517 425 507L379 464Q407 418 408 372T381 278L425 232Q435 221 435 208Q435 194 426 184T402 174Q395 174 390 176T379 183L334 230Q291 202 242 202T148 229L100 182Q90 174 78 174ZM240 268Q267 268 290 282T326 319T340 370Q340 397
327 420T290 457T240 471Q213 471 190 457T154 420T140 370Q140 343 153 320T190 283T240 268Z" />
<glyph unicode="&#xa5;" horiz-adv-x="633" d="M158 293Q146 293 139 300T131 320Q131 332 138 339T158 347H476Q488 347 495 340T503 320Q503 308 496 301T476 293H158ZM158 173Q146 173 139 180T131 200Q131 212 138 219T158 227H476Q488 227 495 220T503 200Q503
188 496 181T476 173H158ZM317 0Q304 0 296 8T287 30V292L11 734Q4 746 5 756T14 774T34 781Q42 781 47 778T58 769L339 311H295L572 762Q579 773 585 777T601 781Q613 781 620 774T628 756T623 734L347 292V30Q347 17 339 9T317 0Z" />
<glyph unicode="&#xa6;" horiz-adv-x="234" d="M113 446Q100 446 92 454T83 476V840Q83 853 91 862T113 871Q126 871 135 862T144 840V476Q144 463 135 455T113 446ZM113 -234Q100 -234 92 -226T83 -204V152Q83 165 91 173T113 182Q126 182 135 174T144 152V-204Q144
-217 135 -225T113 -234Z" />
<glyph unicode="&#xa7;" horiz-adv-x="469" d="M233 -234Q180 -234 136 -209T67 -140T41 -45Q41 -32 49 -24T71 -15Q84 -15 92 -23T101 -45Q101 -81 119 -110T168 -156T233 -174Q268 -174 298 -157T346 -110T365 -45Q365 -10 347 19T298 66T233 84Q180 84 137
109T67 178T41 273Q41 321 63 363T128 433Q85 461 63 502T41 592Q41 644 66 687T136 755T233 781Q286 781 329 756T399 687T425 592Q425 579 417 571T395 562Q382 562 374 570T365 592Q365 628 347 657T298 703T233 721Q198 721 168 704T120 658T101 592Q101 556
119 527T167 480T233 462Q286 462 329 437T399 369T425 273Q425 225 403 183T338 114Q381 87 403 45T425 -45Q425 -97 399 -140T330 -208T233 -234ZM233 144Q269 144 299 161T347 208T365 273Q365 309 347 338T298 385T233 403Q198 403 168 386T119 339T101 273Q101
237 119 208T167 161T233 144Z" />
<glyph unicode="&#xa8;" horiz-adv-x="469" d="M151 627Q129 627 114 642T99 679Q99 700 114 715T151 730Q173 730 187 715T202 679Q202 657 188 642T151 627ZM351 627Q329 627 314 642T299 679Q299 700 314 715T351 730Q373 730 387 715T402 679Q402 657 388
642T351 627Z" />
<glyph unicode="&#xa9;" horiz-adv-x="859" d="M441 139Q370 139 314 172T226 262T193 392Q193 465 223 522T307 613T427 646Q547 646 618 556Q627 544 625 532T610 512Q600 505 588 507T568 519Q513 584 427 584Q378 584 340 560T281 493T259 392Q259 337 282
294T346 225T441 200Q516 200 562 242Q572 251 584 251T605 244Q615 234 615 222T606 200Q540 139 441 139ZM436 0Q354 0 283 30T159 114T75 239T45 392Q45 472 75 543T160 668T284 752T436 783Q516 783 586 753T711 668T796 543T827 392Q827 310 797 239T714 114T589
30T436 0ZM436 56Q505 56 566 82T673 155T746 262T772 392Q772 461 746 521T674 628T567 701T436 727Q368 727 308 701T201 629T128 522T101 392Q101 322 127 261T199 154T306 82T436 56Z" />
<glyph unicode="&#xaa;" horiz-adv-x="470" d="M235 404Q179 404 135 429T66 499T40 598Q40 654 65 697T135 766T234 792Q290 792 333 767T402 698T428 598L401 523Q382 470 336 437T235 404ZM234 462Q293 462 331 501T370 598Q370 657 332 695T235 734Q176 734
137 696T98 598Q98 540 137 501T234 462ZM400 405Q385 405 378 413T370 435V598H428V435Q428 422 420 414T400 405Z" />
<glyph unicode="&#xab;" horiz-adv-x="469" d="M399 0Q389 0 383 4T371 19L252 256Q248 264 248 273Q248 281 251 288L371 527Q381 546 399 546Q413 546 421 538T430 516Q430 509 427 503L312 273L427 43Q430 39 430 30Q430 17 422 9T399 0ZM192 0Q182 0 176 4T164
19L45 256Q43 261 42 265T41 273Q41 281 44 288L164 527Q174 546 192 546Q205 546 214 538T223 516Q223 509 220 503L105 273L220 43Q223 39 223 30Q223 17 214 9T192 0Z" />
<glyph unicode="&#xac;" horiz-adv-x="547" d="M475 244Q462 244 454 252T445 274V406H70Q57 406 49 415T40 437Q40 450 48 458T70 467H475Q488 467 496 459T505 437V274Q505 261 497 253T475 244Z" />
<glyph unicode="&#xad;" horiz-adv-x="391" d="M69 243Q56 243 48 251T39 273Q39 287 47 295T69 304H312Q325 304 334 296T343 273Q343 260 334 252T312 243H69Z" />
<glyph unicode="&#xae;" horiz-adv-x="859" d="M317 147Q304 147 296 155T288 177V622Q288 636 296 644T317 652H439Q489 652 526 632T585 577T606 496Q606 451 583 417T522 362T439 342H346V177Q346 164 338 156T317 147ZM585 147Q569 147 560 162L426 374L482
388L606 193Q618 174 612 161T585 147ZM346 396H439Q487 396 518 421T549 497Q549 546 518 572T439 598H346V396ZM436 0Q354 0 283 30T159 114T75 239T45 392Q45 472 75 543T160 668T284 752T436 783Q516 783 586 753T711 668T796 543T827 392Q827 310 797 239T714
114T589 30T436 0ZM436 56Q505 56 566 82T673 155T746 262T772 392Q772 461 746 521T674 628T567 701T436 727Q368 727 308 701T201 629T128 522T101 392Q101 322 127 261T199 154T306 82T436 56Z" />
<glyph unicode="&#xaf;" horiz-adv-x="547" d="M140 631Q127 631 119 639T110 661Q110 674 118 683T140 692H405Q418 692 426 683T435 661Q435 648 427 640T405 631H140Z" />
<glyph unicode="&#xb0;" horiz-adv-x="469" d="M233 405Q180 405 137 431T67 501T41 598Q41 651 66 694T136 764T233 790Q287 790 330 764T399 695T425 598Q425 545 399 501T330 431T233 405ZM233 466Q269 466 299 484T347 532T365 598Q365 634 347 663T298 711T233
729Q198 729 168 711T119 664T101 598Q101 562 119 532T167 484T233 466Z" />
<glyph unicode="&#xb1;" horiz-adv-x="547" d="M273 177Q260 177 252 185T243 207V380H71Q58 380 50 388T41 410Q41 423 49 431T71 440H243V613Q243 626 251 634T273 643Q287 643 295 635T304 613V440H476Q489 440 497 432T506 410Q506 397 498 389T476 380H304V207Q304
194 296 186T273 177ZM71 149Q58 149 50 157T41 179Q41 193 49 201T71 210H476Q489 210 497 202T506 179Q506 166 498 158T476 149H71Z" />
<glyph unicode="&#xb2;" horiz-adv-x="357" d="M86 386Q72 386 63 395T54 418Q54 426 56 431T62 441L226 624Q236 635 240 646T244 670Q244 700 224 718T176 737Q142 737 120 717T98 666Q98 653 92 644T71 634Q58 634 52 643T45 666Q45 719 83 754T178 790Q231
790 265 756T300 671Q300 640 284 618T250 577L94 407L79 440H280Q293 440 302 433T312 412Q312 398 303 392T280 386H86Z" />
<glyph unicode="&#xb3;" horiz-adv-x="354" d="M176 380Q120 380 83 414T45 501Q45 515 52 524T74 533Q87 533 91 524T96 501Q96 471 119 451T175 431Q204 431 224 449T244 496Q244 526 228 546T185 567Q167 567 159 574T150 593Q150 621 180 621Q206 621 220
636T234 680Q234 704 219 720T171 736Q136 736 119 720T98 680Q97 670 90 662T75 654Q62 654 54 661T46 682Q46 713 62 737T106 775T169 789Q220 789 254 759T289 681Q289 653 273 628T234 594Q262 582 280 559T299 497Q299 464 283 438T239 396T176 380Z" />
<glyph unicode="&#xb4;" horiz-adv-x="273" d="M73 598Q60 598 51 607T42 629Q42 640 49 649L172 772Q181 781 194 781Q207 781 216 773T225 750Q225 738 216 729L93 606Q85 598 73 598Z" />
<glyph unicode="&#xb5;" horiz-adv-x="673" d="M333 -7Q259 -7 208 25T131 116T104 248H80V517Q80 531 88 539T110 547Q124 547 132 539T140 517V248Q140 191 164 147T233 78T333 53Q389 53 431 73T498 129T523 211L563 209Q560 146 529 97T448 21T333 -7ZM110
-234Q97 -234 89 -226T80 -204V277H140V-204Q140 -217 132 -225T110 -234ZM553 0Q540 0 532 8T523 30V517Q523 531 531 539T553 547Q567 547 575 539T583 517V30Q583 17 575 9T553 0Z" />
<glyph unicode="&#xb6;" horiz-adv-x="555" d="M277 0Q264 0 256 8T247 30V397Q187 397 142 423T71 492T45 589Q45 642 71 686T140 756T237 782H480Q493 782 501 774T510 751Q510 738 499 730T470 721V30Q470 17 462 9T440 0Q427 0 418 8T409 30V721H308V30Q308
17 300 9T277 0Z" />
<glyph unicode="&#xb7;" horiz-adv-x="195" d="M94 324Q73 324 58 338T43 375Q43 396 57 410T94 425Q116 425 130 410T144 375Q144 353 130 339T94 324Z" />
<glyph unicode="&#xb8;" horiz-adv-x="313" d="M149 -232Q100 -232 69 -212T38 -166Q38 -153 46 -144T68 -135Q79 -135 86 -141T103 -154Q111 -160 120 -165T149 -171Q174 -171 191 -160T208 -130Q208 -110 195 -99T151 -79Q132 -74 123 -65T124 -33L144 16Q152
38 179 38Q194 38 201 27T203 0L188 -36Q241 -52 258 -75T276 -128Q276 -157 258 -181T212 -218T149 -232Z" />
<glyph unicode="&#xb9;" horiz-adv-x="254" d="M166 386Q152 386 145 394T137 416L138 715L52 687Q40 683 29 685T12 700Q8 712 13 721T31 735L138 774Q160 782 177 779T194 749V416Q193 401 187 394T166 386Z" />
<glyph unicode="&#xba;" horiz-adv-x="468" d="M235 404Q179 404 135 429T66 499T40 598Q40 654 65 697T135 766T234 792Q290 792 333 767T402 698T428 598Q428 543 403 499T334 430T235 404ZM234 462Q293 462 331 501T370 598Q370 657 332 695T235 734Q176 734
137 696T98 598Q98 540 137 501T234 462Z" />
<glyph unicode="&#xbb;" horiz-adv-x="469" d="M278 0Q265 0 257 8T248 30Q248 37 250 43L365 273L250 503Q249 506 249 509T248 516Q248 529 256 537T278 546Q295 546 306 527L426 288Q428 284 429 281T430 273Q430 269 429 265T425 256L306 19Q301 9 295 5T278
0ZM71 0Q58 0 50 8T41 30Q41 37 43 43L158 273L43 503Q42 506 42 509T41 516Q41 529 49 537T71 546Q88 546 99 527L219 288Q221 284 222 281T223 273Q223 266 218 256L99 19Q94 9 88 5T71 0Z" />
<glyph unicode="&#xbc;" horiz-adv-x="743" d="M166 386Q152 386 145 394T137 416L138 715L52 687Q40 683 29 685T12 700Q8 712 13 721T31 735L138 774Q160 782 177 779T194 749V416Q193 401 187 394T166 386ZM126 0Q106 0 101 16T106 47L588 779Q592 784 598
787T612 790Q632 790 637 775T632 743L153 16Q143 0 126 0ZM615 0Q601 0 594 8T586 30V87H429Q413 87 403 96T392 120Q392 137 405 153L579 378Q586 386 594 390T612 395Q624 395 633 387T643 363V140H680Q694 140 701 134T708 113Q708 100 701 94T680 87H643V30Q643
15 637 8T615 0ZM458 140H589L590 312L458 140Z" />
<glyph unicode="&#xbd;" horiz-adv-x="761" d="M166 386Q152 386 145 394T137 416L138 715L52 687Q40 683 29 685T12 700Q8 712 13 721T31 735L138 774Q160 782 177 779T194 749V416Q193 401 187 394T166 386ZM143 0Q123 0 118 16T123 47L605 779Q609 784 615
787T629 790Q649 790 654 775T649 743L170 16Q160 0 143 0ZM515 0Q501 0 492 9T483 32Q483 40 485 45T491 55L655 238Q665 249 669 260T673 284Q673 314 653 332T605 351Q571 351 549 331T527 280Q527 267 521 258T500 248Q487 248 481 257T474 280Q474 333 512
368T607 404Q660 404 694 370T729 285Q729 254 713 232T679 191L523 21L508 54H709Q722 54 731 47T741 26Q741 12 732 6T709 0H515Z" />
<glyph unicode="&#xbe;" horiz-adv-x="819" d="M176 380Q120 380 83 414T45 501Q45 515 52 524T74 533Q87 533 91 524T96 501Q96 471 119 451T175 431Q204 431 224 449T244 496Q244 526 228 546T185 567Q167 567 159 574T150 593Q150 621 180 621Q206 621 220
636T234 680Q234 704 219 720T171 736Q136 736 119 720T98 680Q97 670 90 662T75 654Q62 654 54 661T46 682Q46 713 62 737T106 775T169 789Q220 789 254 759T289 681Q289 653 273 628T234 594Q262 582 280 559T299 497Q299 464 283 438T239 396T176 380ZM171 0Q151
0 146 16T151 47L633 779Q637 784 643 787T657 790Q677 790 682 775T677 743L198 16Q188 0 171 0ZM686 0Q672 0 665 8T657 30V87H500Q484 87 474 96T463 120Q463 137 476 153L650 378Q657 386 665 390T683 395Q695 395 704 387T714 363V140H751Q765 140 772 134T779
113Q779 100 772 94T751 87H714V30Q714 15 708 8T686 0ZM529 140H660L661 312L529 140Z" />
<glyph unicode="&#xbf;" horiz-adv-x="547" d="M272 449Q286 449 294 441T302 418Q302 377 283 331T234 254Q202 221 171 193T119 129T99 40Q99 -4 121 -39T182 -95T272 -116Q323 -116 361 -94T422 -33T444 56Q444 69 452 77T474 85Q488 85 496 77T505 56Q505
-12 475 -64T393 -146T272 -176Q204 -176 152 -147T69 -67T39 46Q39 102 60 140T114 210T187 281Q220 314 230 350T241 418Q241 432 250 440T272 449ZM272 621Q294 621 308 606T322 570Q322 549 308 535T273 520Q251 520 236 534T221 570Q221 592 236 606T272 621Z"
/>
<glyph unicode="&#xc0;" horiz-adv-x="703" d="M49 0Q30 0 23 15T22 43L325 760Q333 781 354 781Q374 781 383 760L687 43Q695 29 686 15T660 0Q650 0 644 4T632 19L338 720H370L77 19Q73 9 66 5T49 0ZM123 196L147 250H563L586 196H123ZM353 873Q343 873 332
881L209 1004Q201 1012 201 1025Q201 1039 210 1047T232 1056Q244 1056 253 1047L376 924Q383 917 383 904Q383 891 375 882T353 873Z" />
<glyph unicode="&#xc1;" horiz-adv-x="703" d="M49 0Q30 0 23 15T22 43L325 760Q333 781 354 781Q374 781 383 760L687 43Q695 29 686 15T660 0Q650 0 644 4T632 19L338 720H370L77 19Q73 9 66 5T49 0ZM123 196L147 250H563L586 196H123ZM337 862Q324 862 315
871T306 893Q306 904 313 913L436 1036Q445 1045 458 1045Q471 1045 480 1037T489 1014Q489 1009 487 1004T480 993L357 870Q349 862 337 862Z" />
<glyph unicode="&#xc2;" horiz-adv-x="703" d="M49 0Q30 0 23 15T22 43L325 760Q333 781 354 781Q374 781 383 760L687 43Q695 29 686 15T660 0Q650 0 644 4T632 19L338 720H370L77 19Q73 9 66 5T49 0ZM123 196L147 250H563L586 196H123ZM232 882Q219 882 210
890T200 912Q200 929 216 939L337 1020Q345 1024 352 1024Q357 1024 360 1023T367 1020L488 939Q504 929 504 912Q504 899 496 891T473 882Q467 882 463 883T454 888L352 956L250 888Q241 882 232 882Z" />
<glyph unicode="&#xc3;" horiz-adv-x="703" d="M49 0Q30 0 23 15T22 43L325 760Q333 781 354 781Q374 781 383 760L687 43Q695 29 686 15T660 0Q650 0 644 4T632 19L338 720H370L77 19Q73 9 66 5T49 0ZM123 196L147 250H563L586 196H123ZM413 886Q389 886 370
898T340 920Q325 935 315 942T291 949Q278 949 269 938T249 906Q243 895 233 891T213 889Q202 893 198 903T199 926Q216 966 238 983T290 1000Q316 1000 331 991T362 967Q382 951 391 945T409 939Q424 939 435 969Q440 981 450 987T471 990Q485 986 490 976T490
953Q475 916 456 901T413 886Z" />
<glyph unicode="&#xc4;" horiz-adv-x="703" d="M49 0Q30 0 23 15T22 43L325 760Q333 781 354 781Q374 781 383 760L687 43Q695 29 686 15T660 0Q650 0 644 4T632 19L338 720H370L77 19Q73 9 66 5T49 0ZM123 196L147 250H563L586 196H123ZM252 891Q230 891 215
906T200 943Q200 964 215 979T252 994Q274 994 288 979T303 943Q303 921 289 906T252 891ZM452 891Q430 891 415 906T400 943Q400 964 415 979T452 994Q474 994 488 979T503 943Q503 921 489 906T452 891Z" />
<glyph unicode="&#xc5;" horiz-adv-x="703" d="M49 0Q30 0 23 15T22 43L325 760Q333 781 354 781Q374 781 383 760L687 43Q695 29 686 15T660 0Q650 0 644 4T632 19L338 720H370L77 19Q73 9 66 5T49 0ZM123 196L147 250H563L586 196H123ZM352 831Q315 831 288
858T260 923Q260 962 287 988T352 1015Q390 1015 417 988T444 923Q444 886 418 859T352 831ZM352 870Q375 870 390 885T406 923Q406 946 391 961T352 977Q330 977 315 962T299 923Q299 901 314 886T352 870Z" />
<glyph unicode="&#xc6;" horiz-adv-x="932" d="M50 0Q38 0 30 7T20 24T23 43L441 753Q450 768 462 774T494 781H857Q869 781 878 773T887 751Q887 739 878 730T857 721H506V421H737Q750 421 758 413T767 391Q767 378 759 369T737 360H506V60H857Q869 60 878 51T887
30Q887 17 878 9T857 0H476Q463 0 455 8T446 30V196H182L78 19Q71 0 50 0ZM214 250H446V689L469 683L214 250Z" />
<glyph unicode="&#xc7;" horiz-adv-x="767" d="M451 -10Q371 -10 301 21T176 108T91 236T60 391Q60 472 90 544T173 672T298 759T451 791Q520 791 582 769T698 702Q707 695 707 683T699 661T677 651Q673 651 669 652T661 656T652 663Q612 699 561 715T451 731Q384
731 324 704T218 629T146 520T120 391Q120 321 146 259T217 150T323 77T451 50Q510 50 561 68T658 123Q666 130 677 128T696 118T704 97Q704 91 703 86T697 76Q648 27 584 9T451 -10ZM438 -232Q389 -232 358 -212T327 -166Q327 -153 335 -144T357 -135Q368 -135
375 -141T392 -154Q400 -160 409 -165T438 -171Q463 -171 480 -160T497 -130Q497 -110 484 -99T440 -79Q421 -74 412 -65T413 -33L433 16Q437 26 445 32T468 38Q483 38 490 27T492 0L477 -36Q530 -52 547 -75T565 -128Q565 -157 547 -181T501 -218T438 -232Z" />
<glyph unicode="&#xc8;" horiz-adv-x="686" d="M130 0Q117 0 109 8T100 30V751Q100 764 108 772T130 781H611Q623 781 632 773T641 751Q641 739 632 730T611 721H160V421H491Q504 421 512 413T521 391Q521 378 513 369T491 360H160V60H611Q623 60 632 51T641 30Q641
17 632 9T611 0H130ZM375 873Q365 873 354 881L231 1004Q223 1012 223 1025Q223 1039 232 1047T254 1056Q266 1056 275 1047L398 924Q405 917 405 904Q405 891 397 882T375 873Z" />
<glyph unicode="&#xc9;" horiz-adv-x="686" d="M130 0Q117 0 109 8T100 30V751Q100 764 108 772T130 781H611Q623 781 632 773T641 751Q641 739 632 730T611 721H160V421H491Q504 421 512 413T521 391Q521 378 513 369T491 360H160V60H611Q623 60 632 51T641 30Q641
17 632 9T611 0H130ZM359 862Q346 862 337 871T328 893Q328 904 335 913L458 1036Q467 1045 480 1045Q493 1045 502 1037T511 1014Q511 1009 509 1004T502 993L379 870Q371 862 359 862Z" />
<glyph unicode="&#xca;" horiz-adv-x="686" d="M130 0Q117 0 109 8T100 30V751Q100 764 108 772T130 781H611Q623 781 632 773T641 751Q641 739 632 730T611 721H160V421H491Q504 421 512 413T521 391Q521 378 513 369T491 360H160V60H611Q623 60 632 51T641 30Q641
17 632 9T611 0H130ZM254 882Q241 882 232 890T222 912Q222 929 238 939L359 1020Q367 1024 374 1024Q379 1024 382 1023T389 1020L510 939Q526 929 526 912Q526 899 518 891T495 882Q489 882 485 883T476 888L374 956L272 888Q263 882 254 882Z" />
<glyph unicode="&#xcb;" horiz-adv-x="686" d="M130 0Q117 0 109 8T100 30V751Q100 764 108 772T130 781H611Q623 781 632 773T641 751Q641 739 632 730T611 721H160V421H491Q504 421 512 413T521 391Q521 378 513 369T491 360H160V60H611Q623 60 632 51T641 30Q641
17 632 9T611 0H130ZM274 891Q252 891 237 906T222 943Q222 964 237 979T274 994Q296 994 310 979T325 943Q325 921 311 906T274 891ZM474 891Q452 891 437 906T422 943Q422 964 437 979T474 994Q496 994 510 979T525 943Q525 921 511 906T474 891Z" />
<glyph unicode="&#xcc;" horiz-adv-x="260" d="M130 0Q117 0 109 8T100 30V751Q100 764 108 772T130 781Q143 781 151 773T160 751V30Q160 17 152 9T130 0ZM131 873Q121 873 110 881L-13 1004Q-21 1012 -21 1025Q-21 1039 -12 1047T10 1056Q22 1056 31 1047L154
924Q161 917 161 904Q161 891 153 882T131 873Z" />
<glyph unicode="&#xcd;" horiz-adv-x="260" d="M130 0Q117 0 109 8T100 30V751Q100 764 108 772T130 781Q143 781 151 773T160 751V30Q160 17 152 9T130 0ZM115 862Q102 862 93 871T84 893Q84 904 91 913L214 1036Q223 1045 236 1045Q249 1045 258 1037T267 1014Q267
1009 265 1004T258 993L135 870Q127 862 115 862Z" />
<glyph unicode="&#xce;" horiz-adv-x="260" d="M130 0Q117 0 109 8T100 30V751Q100 764 108 772T130 781Q143 781 151 773T160 751V30Q160 17 152 9T130 0ZM10 882Q-3 882 -12 890T-22 912Q-22 929 -6 939L115 1020Q123 1024 130 1024Q135 1024 138 1023T145 1020L266
939Q282 929 282 912Q282 899 274 891T251 882Q245 882 241 883T232 888L130 956L28 888Q19 882 10 882Z" />
<glyph unicode="&#xcf;" horiz-adv-x="260" d="M130 0Q117 0 109 8T100 30V751Q100 764 108 772T130 781Q143 781 151 773T160 751V30Q160 17 152 9T130 0ZM30 891Q8 891 -7 906T-22 943Q-22 964 -7 979T30 994Q52 994 66 979T81 943Q81 921 67 906T30 891ZM230
891Q208 891 193 906T178 943Q178 964 193 979T230 994Q252 994 266 979T281 943Q281 921 267 906T230 891Z" />
<glyph unicode="&#xd0;" horiz-adv-x="761" d="M27 364Q15 364 8 371T0 391Q0 403 7 410T27 418H325Q337 418 344 411T352 391Q352 379 345 372T325 364H27ZM130 0Q117 0 109 8T100 30V751Q100 765 108 773T130 781H310Q396 781 467 753T591 672T672 548T701 391Q701
305 673 234T592 110T468 29T310 0H130ZM160 54H310Q407 54 481 98T598 218T641 391Q641 488 599 563T482 683T310 727H160V54Z" />
<glyph unicode="&#xd1;" horiz-adv-x="821" d="M130 0Q117 0 109 8T100 30V751Q100 764 108 772T130 781Q144 781 153 771L661 110V751Q661 764 669 772T691 781Q703 781 712 773T721 751V30Q721 17 712 9T691 0Q684 0 679 2T669 9L160 671V30Q160 17 152 9T130
0ZM516 864Q485 864 462 876T422 899Q402 913 391 917T365 922Q345 922 325 912T288 881Q281 871 269 869T248 873Q236 880 234 891T239 913Q265 945 298 962T365 980Q395 980 417 969T455 947Q472 936 484 929T516 922Q534 922 547 927T571 944Q579 953 590 956T610
955Q624 948 627 937T622 915Q583 864 516 864Z" />
<glyph unicode="&#xd2;" horiz-adv-x="921" d="M461 -10Q375 -10 302 20T175 104T90 232T60 391Q60 477 90 549T174 676T302 761T461 791Q547 791 619 761T746 677T831 550T861 391Q861 305 831 232T747 105T620 20T461 -10ZM461 50Q533 50 595 75T703 147T775
256T801 391Q801 463 776 525T704 633T595 705T461 731Q388 731 326 706T218 634T146 525T120 391Q120 318 145 256T217 148T326 76T461 50ZM462 873Q452 873 441 881L318 1004Q310 1012 310 1025Q310 1039 319 1047T341 1056Q353 1056 362 1047L485 924Q492 917
492 904Q492 891 484 882T462 873Z" />
<glyph unicode="&#xd3;" horiz-adv-x="921" d="M461 -10Q375 -10 302 20T175 104T90 232T60 391Q60 477 90 549T174 676T302 761T461 791Q547 791 619 761T746 677T831 550T861 391Q861 305 831 232T747 105T620 20T461 -10ZM461 50Q533 50 595 75T703 147T775
256T801 391Q801 463 776 525T704 633T595 705T461 731Q388 731 326 706T218 634T146 525T120 391Q120 318 145 256T217 148T326 76T461 50ZM446 862Q433 862 424 871T415 893Q415 904 422 913L545 1036Q554 1045 567 1045Q580 1045 589 1037T598 1014Q598 1009
596 1004T589 993L466 870Q458 862 446 862Z" />
<glyph unicode="&#xd4;" horiz-adv-x="921" d="M461 -10Q375 -10 302 20T175 104T90 232T60 391Q60 477 90 549T174 676T302 761T461 791Q547 791 619 761T746 677T831 550T861 391Q861 305 831 232T747 105T620 20T461 -10ZM461 50Q533 50 595 75T703 147T775
256T801 391Q801 463 776 525T704 633T595 705T461 731Q388 731 326 706T218 634T146 525T120 391Q120 318 145 256T217 148T326 76T461 50ZM341 882Q328 882 319 890T309 912Q309 929 325 939L446 1020Q454 1024 461 1024Q466 1024 469 1023T476 1020L597 939Q613
929 613 912Q613 899 605 891T582 882Q576 882 572 883T563 888L461 956L359 888Q350 882 341 882Z" />
<glyph unicode="&#xd5;" horiz-adv-x="921" d="M461 -10Q375 -10 302 20T175 104T90 232T60 391Q60 477 90 549T174 676T302 761T461 791Q547 791 619 761T746 677T831 550T861 391Q861 305 831 232T747 105T620 20T461 -10ZM461 50Q533 50 595 75T703 147T775
256T801 391Q801 463 776 525T704 633T595 705T461 731Q388 731 326 706T218 634T146 525T120 391Q120 318 145 256T217 148T326 76T461 50ZM566 864Q535 864 512 876T472 899Q452 913 441 917T415 922Q395 922 375 912T338 881Q331 871 319 869T298 873Q286 880
284 891T289 913Q315 945 348 962T415 980Q445 980 467 969T505 947Q522 936 534 929T566 922Q584 922 597 927T621 944Q629 953 640 956T660 955Q674 948 677 937T672 915Q633 864 566 864Z" />
<glyph unicode="&#xd6;" horiz-adv-x="921" d="M461 -10Q375 -10 302 20T175 104T90 232T60 391Q60 477 90 549T174 676T302 761T461 791Q547 791 619 761T746 677T831 550T861 391Q861 305 831 232T747 105T620 20T461 -10ZM461 50Q533 50 595 75T703 147T775
256T801 391Q801 463 776 525T704 633T595 705T461 731Q388 731 326 706T218 634T146 525T120 391Q120 318 145 256T217 148T326 76T461 50ZM361 891Q339 891 324 906T309 943Q309 964 324 979T361 994Q383 994 397 979T412 943Q412 921 398 906T361 891ZM561 891Q539
891 524 906T509 943Q509 964 524 979T561 994Q583 994 597 979T612 943Q612 921 598 906T561 891Z" />
<glyph unicode="&#xd7;" horiz-adv-x="469" d="M71 162Q58 162 50 170T41 192Q41 206 48 214L189 354L48 495Q40 503 41 514Q41 528 49 537T71 547Q84 547 93 538L233 398L373 538Q382 547 395 547Q408 547 416 539T425 517Q425 503 417 495L276 354L417 214Q425
204 425 192Q425 179 417 171T395 162Q383 162 374 169L233 311L92 169Q84 162 71 162Z" />
<glyph unicode="&#xd8;" horiz-adv-x="859" d="M89 0Q67 0 60 19T66 51L159 144L191 168L695 672L723 693L804 773Q812 781 825 781Q844 781 854 764T848 731L767 650L741 631L232 122L204 102L110 8Q102 0 89 0ZM461 -10Q375 -10 302 20T175 104T90 232T60 391Q60
477 90 549T174 676T302 761T461 791Q547 791 619 761T746 677T831 550T861 391Q861 305 831 232T747 105T620 20T461 -10ZM461 50Q533 50 595 75T703 147T775 256T801 391Q801 463 776 525T704 633T595 705T461 731Q388 731 326 706T218 634T146 525T120 391Q120
318 145 256T217 148T326 76T461 50Z" />
<glyph unicode="&#xd9;" horiz-adv-x="801" d="M400 -16Q312 -16 245 18T139 114T100 255V751Q100 765 108 773T130 781Q144 781 152 773T160 751V255Q160 193 190 146T275 71T400 44Q471 44 525 71T610 145T641 255V751Q641 765 649 773T671 781Q685 781 693
773T701 751V255Q701 176 663 115T556 19T400 -16ZM402 873Q392 873 381 881L258 1004Q250 1012 250 1025Q250 1039 259 1047T281 1056Q293 1056 302 1047L425 924Q432 917 432 904Q432 891 424 882T402 873Z" />
<glyph unicode="&#xda;" horiz-adv-x="801" d="M400 -16Q312 -16 245 18T139 114T100 255V751Q100 765 108 773T130 781Q144 781 152 773T160 751V255Q160 193 190 146T275 71T400 44Q471 44 525 71T610 145T641 255V751Q641 765 649 773T671 781Q685 781 693
773T701 751V255Q701 176 663 115T556 19T400 -16ZM386 862Q373 862 364 871T355 893Q355 904 362 913L485 1036Q494 1045 507 1045Q520 1045 529 1037T538 1014Q538 1009 536 1004T529 993L406 870Q398 862 386 862Z" />
<glyph unicode="&#xdb;" horiz-adv-x="801" d="M400 -16Q312 -16 245 18T139 114T100 255V751Q100 765 108 773T130 781Q144 781 152 773T160 751V255Q160 193 190 146T275 71T400 44Q471 44 525 71T610 145T641 255V751Q641 765 649 773T671 781Q685 781 693
773T701 751V255Q701 176 663 115T556 19T400 -16ZM281 882Q268 882 259 890T249 912Q249 929 265 939L386 1020Q394 1024 401 1024Q406 1024 409 1023T416 1020L537 939Q553 929 553 912Q553 899 545 891T522 882Q516 882 512 883T503 888L401 956L299 888Q290
882 281 882Z" />
<glyph unicode="&#xdc;" horiz-adv-x="801" d="M400 -16Q312 -16 245 18T139 114T100 255V751Q100 765 108 773T130 781Q144 781 152 773T160 751V255Q160 193 190 146T275 71T400 44Q471 44 525 71T610 145T641 255V751Q641 765 649 773T671 781Q685 781 693
773T701 751V255Q701 176 663 115T556 19T400 -16ZM301 891Q279 891 264 906T249 943Q249 964 264 979T301 994Q323 994 337 979T352 943Q352 921 338 906T301 891ZM501 891Q479 891 464 906T449 943Q449 964 464 979T501 994Q523 994 537 979T552 943Q552 921
538 906T501 891Z" />
<glyph unicode="&#xdd;" horiz-adv-x="633" d="M317 0Q304 0 296 8T287 30V292L11 734Q4 746 5 756T14 774T34 781Q42 781 47 778T58 769L339 311H295L572 762Q579 773 585 777T601 781Q613 781 620 774T628 756T623 734L347 292V30Q347 17 339 9T317 0ZM302 862Q289
862 280 871T271 893Q271 904 278 913L401 1036Q410 1045 423 1045Q436 1045 445 1037T454 1014Q454 1009 452 1004T445 993L322 870Q314 862 302 862Z" />
<glyph unicode="&#xde;" horiz-adv-x="605" d="M131 0Q117 0 109 8T100 30V751Q100 764 108 772T130 781Q143 781 151 773T160 751V651H330Q403 651 459 622T548 540T580 421Q580 354 548 302T460 220T330 190H160V30Q160 17 152 9T131 0ZM160 244H330Q386 244
428 267T495 331T520 421Q520 471 496 510T429 573T330 597H160V244Z" />
<glyph unicode="&#xdf;" horiz-adv-x="547" d="M91 0Q79 0 71 8T62 29V578Q62 631 87 674T158 744T266 770Q319 770 361 749T428 690T453 598Q453 560 439 534T405 486T371 444T356 400Q356 379 372 360T411 320T458 276T498 223T514 156Q514 112 490 75T423 16T325
-6Q287 -6 253 6T196 36T174 71Q174 82 180 90T198 99Q213 99 220 93T237 77T266 61T325 54Q384 54 419 78T454 156Q454 187 438 212T399 258T352 301T312 346T296 399Q296 429 310 450T344 491T378 534T393 590Q393 650 358 680T264 710Q203 710 163 670T122 568V29Q122
17 114 9T91 0Z" />
<glyph unicode="&#xe0;" horiz-adv-x="679" d="M340 -6Q260 -6 197 30T97 130T60 273Q60 353 96 416T196 516T340 553Q420 553 483 517T582 417T619 273L594 233Q594 165 561 111T470 26T340 -6ZM340 50Q403 50 452 79T530 159T559 273Q559 337 531 387T453 467T340
497Q278 497 228 468T149 388T120 273Q120 210 149 160T228 80T340 50ZM590 0Q576 0 568 8T559 30V213L578 273H619V30Q619 17 611 9T590 0ZM341 639Q331 639 320 647L197 770Q189 778 189 791Q189 805 198 813T220 822Q232 822 241 813L364 690Q371 683 371 670Q371
657 363 648T341 639Z" />
<glyph unicode="&#xe1;" horiz-adv-x="679" d="M340 -6Q260 -6 197 30T97 130T60 273Q60 353 96 416T196 516T340 553Q420 553 483 517T582 417T619 273L594 233Q594 165 561 111T470 26T340 -6ZM340 50Q403 50 452 79T530 159T559 273Q559 337 531 387T453 467T340
497Q278 497 228 468T149 388T120 273Q120 210 149 160T228 80T340 50ZM590 0Q576 0 568 8T559 30V213L578 273H619V30Q619 17 611 9T590 0ZM325 628Q312 628 303 637T294 659Q294 670 301 679L424 802Q433 811 446 811Q459 811 468 803T477 780Q477 775 475 770T468
759L345 636Q337 628 325 628Z" />
<glyph unicode="&#xe2;" horiz-adv-x="679" d="M340 -6Q260 -6 197 30T97 130T60 273Q60 353 96 416T196 516T340 553Q420 553 483 517T582 417T619 273L594 233Q594 165 561 111T470 26T340 -6ZM340 50Q403 50 452 79T530 159T559 273Q559 337 531 387T453 467T340
497Q278 497 228 468T149 388T120 273Q120 210 149 160T228 80T340 50ZM590 0Q576 0 568 8T559 30V213L578 273H619V30Q619 17 611 9T590 0ZM220 648Q207 648 198 656T188 678Q188 695 204 705L325 786Q333 790 340 790Q345 790 348 789T355 786L476 705Q492 695
492 678Q492 665 484 657T461 648Q455 648 451 649T442 654L340 722L238 654Q229 648 220 648Z" />
<glyph unicode="&#xe3;" horiz-adv-x="679" d="M340 -6Q260 -6 197 30T97 130T60 273Q60 353 96 416T196 516T340 553Q420 553 483 517T582 417T619 273L594 233Q594 165 561 111T470 26T340 -6ZM340 50Q403 50 452 79T530 159T559 273Q559 337 531 387T453 467T340
497Q278 497 228 468T149 388T120 273Q120 210 149 160T228 80T340 50ZM590 0Q576 0 568 8T559 30V213L578 273H619V30Q619 17 611 9T590 0ZM445 630Q414 630 391 642T351 665Q331 679 320 683T294 688Q274 688 254 678T217 647Q210 637 198 635T177 639Q165 646
163 657T168 679Q194 711 227 728T294 746Q324 746 346 735T384 713Q401 702 413 695T445 688Q463 688 476 693T500 710Q508 719 519 722T539 721Q553 714 556 703T551 681Q512 630 445 630Z" />
<glyph unicode="&#xe4;" horiz-adv-x="679" d="M340 -6Q260 -6 197 30T97 130T60 273Q60 353 96 416T196 516T340 553Q420 553 483 517T582 417T619 273L594 233Q594 165 561 111T470 26T340 -6ZM340 50Q403 50 452 79T530 159T559 273Q559 337 531 387T453 467T340
497Q278 497 228 468T149 388T120 273Q120 210 149 160T228 80T340 50ZM590 0Q576 0 568 8T559 30V213L578 273H619V30Q619 17 611 9T590 0ZM240 657Q218 657 203 672T188 709Q188 730 203 745T240 760Q262 760 276 745T291 709Q291 687 277 672T240 657ZM440 657Q418
657 403 672T388 709Q388 730 403 745T440 760Q462 760 476 745T491 709Q491 687 477 672T440 657Z" />
<glyph unicode="&#xe5;" horiz-adv-x="679" d="M340 -6Q260 -6 197 30T97 130T60 273Q60 353 96 416T196 516T340 553Q420 553 483 517T582 417T619 273L594 233Q594 165 561 111T470 26T340 -6ZM340 50Q403 50 452 79T530 159T559 273Q559 337 531 387T453 467T340
497Q278 497 228 468T149 388T120 273Q120 210 149 160T228 80T340 50ZM590 0Q576 0 568 8T559 30V213L578 273H619V30Q619 17 611 9T590 0ZM340 597Q303 597 276 624T248 689Q248 728 275 754T340 781Q378 781 405 754T432 689Q432 652 406 625T340 597ZM340 636Q363
636 378 651T394 689Q394 712 379 727T340 743Q318 743 303 728T287 689Q287 667 302 652T340 636Z" />
<glyph unicode="&#xe6;" horiz-adv-x="1108" d="M831 -5Q755 -5 696 30T603 129T569 273Q569 355 600 417T688 516T816 552Q890 552 947 518T1036 423T1068 283Q1068 270 1060 263T1039 255H599V307H1055L1011 274Q1013 339 989 389T921 467T816 496Q759 496 715
468T645 389T619 274Q619 208 646 158T721 80T831 51Q878 51 913 64T972 100Q980 108 991 108T1011 102Q1022 93 1022 82T1013 62Q981 33 930 14T831 -5ZM340 -6Q260 -6 197 30T97 130T60 273Q60 353 96 416T196 516T340 553Q420 553 483 517T582 417T619 273L594
233Q594 165 561 111T470 26T340 -6ZM340 50Q403 50 452 79T530 159T559 273Q559 337 531 387T453 467T340 497Q278 497 228 468T149 388T120 273Q120 210 149 160T228 80T340 50ZM590 0Q576 0 568 8T559 30V213L578 273H619V30Q619 17 611 9T590 0Z" />
<glyph unicode="&#xe7;" horiz-adv-x="593" d="M332 -6Q254 -6 193 31T96 131T60 273Q60 353 93 416T184 515T317 552Q381 552 434 528T526 453Q534 443 532 432T519 414Q510 407 499 408T480 420Q416 496 317 496Q258 496 214 467T145 388T120 273Q120 210 147
160T221 80T332 50Q373 50 409 62T473 99Q482 107 493 108T512 101Q522 92 522 81T514 61Q441 -6 332 -6ZM302 -232Q253 -232 222 -212T191 -166Q191 -153 199 -144T221 -135Q232 -135 239 -141T256 -154Q264 -160 273 -165T302 -171Q327 -171 344 -160T361 -130Q361
-110 348 -99T304 -79Q285 -74 276 -65T277 -33L297 16Q301 26 309 32T332 38Q347 38 354 27T356 0L341 -36Q394 -52 411 -75T429 -128Q429 -157 411 -181T365 -218T302 -232Z" />
<glyph unicode="&#xe8;" horiz-adv-x="609" d="M332 -5Q253 -5 192 30T95 129T60 273Q60 355 93 417T184 516T317 552Q391 552 448 518T537 423T569 283Q569 270 561 263T540 255H100V307H556L512 274Q514 339 490 389T422 467T317 496Q260 496 216 468T146 389T120
273Q120 208 147 158T222 80T332 51Q371 51 410 64T473 100Q481 108 492 108T512 102Q523 93 523 82T514 62Q482 33 431 14T332 -5ZM316 639Q306 639 295 647L172 770Q164 778 164 791Q164 805 173 813T195 822Q207 822 216 813L339 690Q346 683 346 670Q346 657
338 648T316 639Z" />
<glyph unicode="&#xe9;" horiz-adv-x="609" d="M332 -5Q253 -5 192 30T95 129T60 273Q60 355 93 417T184 516T317 552Q391 552 448 518T537 423T569 283Q569 270 561 263T540 255H100V307H556L512 274Q514 339 490 389T422 467T317 496Q260 496 216 468T146 389T120
273Q120 208 147 158T222 80T332 51Q371 51 410 64T473 100Q481 108 492 108T512 102Q523 93 523 82T514 62Q482 33 431 14T332 -5ZM300 628Q287 628 278 637T269 659Q269 670 276 679L399 802Q408 811 421 811Q434 811 443 803T452 780Q452 775 450 770T443 759L320
636Q312 628 300 628Z" />
<glyph unicode="&#xea;" horiz-adv-x="609" d="M332 -5Q253 -5 192 30T95 129T60 273Q60 355 93 417T184 516T317 552Q391 552 448 518T537 423T569 283Q569 270 561 263T540 255H100V307H556L512 274Q514 339 490 389T422 467T317 496Q260 496 216 468T146 389T120
273Q120 208 147 158T222 80T332 51Q371 51 410 64T473 100Q481 108 492 108T512 102Q523 93 523 82T514 62Q482 33 431 14T332 -5ZM195 648Q182 648 173 656T163 678Q163 695 179 705L300 786Q308 790 315 790Q320 790 323 789T330 786L451 705Q467 695 467 678Q467
665 459 657T436 648Q430 648 426 649T417 654L315 722L213 654Q204 648 195 648Z" />
<glyph unicode="&#xeb;" horiz-adv-x="609" d="M332 -5Q253 -5 192 30T95 129T60 273Q60 355 93 417T184 516T317 552Q391 552 448 518T537 423T569 283Q569 270 561 263T540 255H100V307H556L512 274Q514 339 490 389T422 467T317 496Q260 496 216 468T146 389T120
273Q120 208 147 158T222 80T332 51Q371 51 410 64T473 100Q481 108 492 108T512 102Q523 93 523 82T514 62Q482 33 431 14T332 -5ZM215 657Q193 657 178 672T163 709Q163 730 178 745T215 760Q237 760 251 745T266 709Q266 687 252 672T215 657ZM415 657Q393 657
378 672T363 709Q363 730 378 745T415 760Q437 760 451 745T466 709Q466 687 452 672T415 657Z" />
<glyph unicode="&#xec;" horiz-adv-x="280" d="M140 0Q127 0 119 8T110 30V517Q110 531 118 539T140 547Q154 547 162 539T170 517V30Q170 17 162 9T140 0ZM397 639Q387 639 376 647L253 770Q245 778 245 791Q245 805 254 813T276 822Q288 822 297 813L420 690Q427
683 427 670Q427 657 419 648T397 639Z" />
<glyph unicode="&#xed;" horiz-adv-x="280" d="M140 0Q127 0 119 8T110 30V517Q110 531 118 539T140 547Q154 547 162 539T170 517V30Q170 17 162 9T140 0ZM125 628Q112 628 103 637T94 659Q94 670 101 679L224 802Q233 811 246 811Q259 811 268 803T277 780Q277
775 275 770T268 759L145 636Q137 628 125 628Z" />
<glyph unicode="&#xee;" horiz-adv-x="280" d="M32 648Q20 648 12 656T3 678Q3 695 17 705L126 786Q133 790 140 790Q144 790 147 789T153 786L262 705Q277 695 277 678Q277 665 269 657T249 648Q243 648 240 649T232 654L140 722L48 654Q40 648 32 648ZM140 0Q127
0 119 8T110 30V517Q110 531 118 539T140 547Q154 547 162 539T170 517V30Q170 17 162 9T140 0Z" />
<glyph unicode="&#xef;" horiz-adv-x="280" d="M50 677Q28 677 13 692T-2 729Q-2 750 13 765T50 780Q72 780 86 765T101 729Q101 707 87 692T50 677ZM230 677Q208 677 193 692T178 729Q178 750 193 765T230 780Q252 780 266 765T281 729Q281 707 267 692T230 677ZM140
0Q127 0 119 8T110 30V517Q110 531 118 539T140 547Q154 547 162 539T170 517V30Q170 17 162 9T140 0Z" />
<glyph unicode="&#xf0;" horiz-adv-x="663" d="M327 -6Q249 -6 189 28T95 123T60 261Q60 338 94 397T189 489T327 523Q395 523 446 494T527 412T557 291H593Q593 204 559 137T465 32T327 -6ZM327 50Q388 50 434 77T506 151T533 261Q533 322 507 368T434 440T327
467Q267 467 220 441T147 368T120 261Q120 199 146 152T220 77T327 50ZM547 286V337Q547 421 529 483T471 593T370 675T219 739Q206 744 198 754T193 778Q198 792 210 795T235 794Q333 762 401 722T512 629T573 507T593 347V286H547ZM258 614Q248 619 246 628T248
648L334 827Q339 838 348 842T368 841Q378 836 380 827T378 807L291 628Q286 617 277 614T258 614Z" />
<glyph unicode="&#xf1;" horiz-adv-x="673" d="M563 0Q550 0 542 8T533 30V299Q533 365 508 408T439 472T340 494Q286 494 243 474T175 417T150 336H100Q104 398 137 447T223 525T340 554Q412 554 469 525T560 439T593 299V30Q593 17 585 9T563 0ZM120 0Q107 0
99 8T90 30V517Q90 531 98 539T120 547Q134 547 142 539T150 517V30Q150 17 142 9T120 0ZM442 630Q411 630 388 642T348 665Q328 679 317 683T291 688Q271 688 251 678T214 647Q207 637 195 635T174 639Q162 646 160 657T165 679Q191 711 224 728T291 746Q321 746
343 735T381 713Q398 702 410 695T442 688Q460 688 473 693T497 710Q505 719 516 722T536 721Q550 714 553 703T548 681Q509 630 442 630Z" />
<glyph unicode="&#xf2;" horiz-adv-x="679" d="M340 -6Q260 -6 197 30T97 130T60 273Q60 353 96 416T196 516T340 553Q420 553 483 517T582 417T619 273Q619 194 583 131T483 31T340 -6ZM340 50Q403 50 452 79T530 159T559 274Q559 337 531 387T453 467T340 497Q278
497 228 468T149 388T120 273Q120 210 149 160T228 80T340 50ZM341 639Q331 639 320 647L197 770Q189 778 189 791Q189 805 198 813T220 822Q232 822 241 813L364 690Q371 683 371 670Q371 657 363 648T341 639Z" />
<glyph unicode="&#xf3;" horiz-adv-x="679" d="M340 -6Q260 -6 197 30T97 130T60 273Q60 353 96 416T196 516T340 553Q420 553 483 517T582 417T619 273Q619 194 583 131T483 31T340 -6ZM340 50Q403 50 452 79T530 159T559 274Q559 337 531 387T453 467T340 497Q278
497 228 468T149 388T120 273Q120 210 149 160T228 80T340 50ZM325 628Q312 628 303 637T294 659Q294 670 301 679L424 802Q433 811 446 811Q459 811 468 803T477 780Q477 775 475 770T468 759L345 636Q337 628 325 628Z" />
<glyph unicode="&#xf4;" horiz-adv-x="679" d="M340 -6Q260 -6 197 30T97 130T60 273Q60 353 96 416T196 516T340 553Q420 553 483 517T582 417T619 273Q619 194 583 131T483 31T340 -6ZM340 50Q403 50 452 79T530 159T559 274Q559 337 531 387T453 467T340 497Q278
497 228 468T149 388T120 273Q120 210 149 160T228 80T340 50ZM220 648Q207 648 198 656T188 678Q188 695 204 705L325 786Q333 790 340 790Q345 790 348 789T355 786L476 705Q492 695 492 678Q492 665 484 657T461 648Q455 648 451 649T442 654L340 722L238 654Q229
648 220 648Z" />
<glyph unicode="&#xf5;" horiz-adv-x="679" d="M340 -6Q260 -6 197 30T97 130T60 273Q60 353 96 416T196 516T340 553Q420 553 483 517T582 417T619 273Q619 194 583 131T483 31T340 -6ZM340 50Q403 50 452 79T530 159T559 274Q559 337 531 387T453 467T340 497Q278
497 228 468T149 388T120 273Q120 210 149 160T228 80T340 50ZM445 630Q414 630 391 642T351 665Q331 679 320 683T294 688Q274 688 254 678T217 647Q210 637 198 635T177 639Q165 646 163 657T168 679Q194 711 227 728T294 746Q324 746 346 735T384 713Q401 702
413 695T445 688Q463 688 476 693T500 710Q508 719 519 722T539 721Q553 714 556 703T551 681Q512 630 445 630Z" />
<glyph unicode="&#xf6;" horiz-adv-x="679" d="M340 -6Q260 -6 197 30T97 130T60 273Q60 353 96 416T196 516T340 553Q420 553 483 517T582 417T619 273Q619 194 583 131T483 31T340 -6ZM340 50Q403 50 452 79T530 159T559 274Q559 337 531 387T453 467T340 497Q278
497 228 468T149 388T120 273Q120 210 149 160T228 80T340 50ZM240 657Q218 657 203 672T188 709Q188 730 203 745T240 760Q262 760 276 745T291 709Q291 687 277 672T240 657ZM440 657Q418 657 403 672T388 709Q388 730 403 745T440 760Q462 760 476 745T491 709Q491
687 477 672T440 657Z" />
<glyph unicode="&#xf7;" horiz-adv-x="469" d="M71 324Q58 324 50 332T41 354Q41 368 49 376T71 385H395Q408 385 416 377T425 354Q425 341 417 333T395 324H71ZM233 162Q216 162 204 174T192 203Q192 220 204 231T233 243Q250 243 261 232T273 203Q273 186 262
174T233 162ZM233 466Q216 466 204 477T192 506Q192 523 204 535T233 547Q250 547 261 535T273 506Q273 489 262 478T233 466Z" />
<glyph unicode="&#xf8;" horiz-adv-x="694" d="M91 -17Q71 -17 63 1T69 35L144 109L170 124L515 468L529 485L581 537Q589 547 604 547Q619 547 626 538T633 516T626 495L568 438L555 424L209 79L187 66L113 -8Q104 -17 91 -17ZM355 -6Q275 -6 212 30T112 130T75
273Q75 353 111 416T211 516T355 553Q435 553 498 517T597 417T634 273Q634 194 598 131T498 31T355 -6ZM355 50Q418 50 467 79T545 159T574 274Q574 337 546 387T468 467T355 497Q293 497 243 468T164 388T135 273Q135 210 164 160T243 80T355 50Z" />
<glyph unicode="&#xf9;" horiz-adv-x="673" d="M333 -7Q261 -7 204 22T114 109T80 248V517Q80 530 88 538T110 547Q123 547 131 539T140 517V248Q140 183 165 140T234 75T333 53Q387 53 430 74T498 130T523 211H573Q569 149 536 100T451 22T333 -7ZM553 0Q540
0 532 8T523 30V517Q523 531 531 539T553 547Q567 547 575 539T583 517V30Q583 17 575 9T553 0ZM338 639Q328 639 317 647L194 770Q186 778 186 791Q186 805 195 813T217 822Q229 822 238 813L361 690Q368 683 368 670Q368 657 360 648T338 639Z" />
<glyph unicode="&#xfa;" horiz-adv-x="673" d="M333 -7Q261 -7 204 22T114 109T80 248V517Q80 530 88 538T110 547Q123 547 131 539T140 517V248Q140 183 165 140T234 75T333 53Q387 53 430 74T498 130T523 211H573Q569 149 536 100T451 22T333 -7ZM553 0Q540
0 532 8T523 30V517Q523 531 531 539T553 547Q567 547 575 539T583 517V30Q583 17 575 9T553 0ZM322 628Q309 628 300 637T291 659Q291 670 298 679L421 802Q430 811 443 811Q456 811 465 803T474 780Q474 775 472 770T465 759L342 636Q334 628 322 628Z" />
<glyph unicode="&#xfb;" horiz-adv-x="673" d="M333 -7Q261 -7 204 22T114 109T80 248V517Q80 530 88 538T110 547Q123 547 131 539T140 517V248Q140 183 165 140T234 75T333 53Q387 53 430 74T498 130T523 211H573Q569 149 536 100T451 22T333 -7ZM553 0Q540
0 532 8T523 30V517Q523 531 531 539T553 547Q567 547 575 539T583 517V30Q583 17 575 9T553 0ZM217 648Q204 648 195 656T185 678Q185 695 201 705L322 786Q330 790 337 790Q342 790 345 789T352 786L473 705Q489 695 489 678Q489 665 481 657T458 648Q452 648
448 649T439 654L337 722L235 654Q226 648 217 648Z" />
<glyph unicode="&#xfc;" horiz-adv-x="673" d="M333 -7Q261 -7 204 22T114 109T80 248V517Q80 530 88 538T110 547Q123 547 131 539T140 517V248Q140 183 165 140T234 75T333 53Q387 53 430 74T498 130T523 211H573Q569 149 536 100T451 22T333 -7ZM553 0Q540
0 532 8T523 30V517Q523 531 531 539T553 547Q567 547 575 539T583 517V30Q583 17 575 9T553 0ZM237 657Q215 657 200 672T185 709Q185 730 200 745T237 760Q259 760 273 745T288 709Q288 687 274 672T237 657ZM437 657Q415 657 400 672T385 709Q385 730 400 745T437
760Q459 760 473 745T488 709Q488 687 474 672T437 657Z" />
<glyph unicode="&#xfd;" horiz-adv-x="554" d="M181 -237Q175 -237 167 -234Q140 -223 152 -197L488 531Q500 556 525 546Q552 535 540 509L204 -219Q195 -237 181 -237ZM287 13Q274 7 264 10T248 26L29 506Q23 519 26 529T42 545Q55 551 65 548T81 532L300 52Q306
39 303 29T287 13ZM270 628Q257 628 248 637T239 659Q239 670 246 679L369 802Q378 811 391 811Q404 811 413 803T422 780Q422 775 420 770T413 759L290 636Q282 628 270 628Z" />
<glyph unicode="&#xfe;" horiz-adv-x="709" d="M120 -234Q107 -234 99 -226T90 -204V751Q90 765 98 773T120 781Q134 781 142 773T150 751V344L127 314Q127 377 148 422T204 497T283 539T369 553Q451 553 514 517T613 418T649 273Q649 192 613 129T514 30T369
-6Q293 -6 236 28T150 121V-204Q150 -217 142 -225T120 -234ZM369 50Q434 50 483 78T561 157T589 273Q589 339 561 389T484 468T369 497Q305 497 256 469T178 390T150 273Q150 208 178 158T255 79T369 50Z" />
<glyph unicode="&#xff;" horiz-adv-x="554" d="M181 -237Q175 -237 167 -234Q140 -223 152 -197L488 531Q500 556 525 546Q552 535 540 509L204 -219Q195 -237 181 -237ZM287 13Q274 7 264 10T248 26L29 506Q23 519 26 529T42 545Q55 551 65 548T81 532L300 52Q306
39 303 29T287 13ZM185 657Q163 657 148 672T133 709Q133 730 148 745T185 760Q207 760 221 745T236 709Q236 687 222 672T185 657ZM385 657Q363 657 348 672T333 709Q333 730 348 745T385 760Q407 760 421 745T436 709Q436 687 422 672T385 657Z" />
<glyph unicode="&#x2013;" horiz-adv-x="391" d="M-9 243Q-22 243 -31 251T-40 273Q-40 287 -31 295T-9 304H396Q409 304 417 296T426 273Q426 260 418 252T396 243H-9Z" />
<glyph unicode="&#x2014;" horiz-adv-x="938" d="M-15 243Q-28 243 -36 251T-45 273Q-45 287 -37 295T-15 304H958Q971 304 979 296T988 273Q988 260 980 252T958 243H-15Z" />
<glyph unicode="&#x2018;" horiz-adv-x="234" d="M151 799Q161 799 169 791T172 770Q160 739 157 717T155 677T160 645T163 612Q163 588 151 576T118 563Q96 563 83 582T70 636Q70 656 78 683T98 737T125 781T151 799Z" />
<glyph unicode="&#x2019;" horiz-adv-x="153" d="M22 551Q12 551 5 559T1 580Q13 612 16 634T18 673T13 705T10 738Q10 762 23 774T55 787Q77 787 90 768T103 714Q103 694 95 667T75 613T48 569T22 551Z" />
<glyph unicode="&#x201a;" horiz-adv-x="234" d="M82 -149Q72 -149 65 -141T61 -120Q73 -88 76 -66T78 -27T73 5T70 38Q70 62 83 74T115 87Q137 87 150 68T163 14Q163 -6 155 -33T135 -87T108 -131T82 -149Z" />
<glyph unicode="&#x201c;" horiz-adv-x="273" d="M111 799Q121 799 129 791T132 770Q120 739 117 717T115 677T120 645T123 612Q123 588 111 576T78 563Q56 563 43 582T30 636Q30 656 38 683T58 737T85 781T111 799ZM251 799Q261 799 269 791T272 770Q260 739
257 717T255 677T260 645T263 612Q263 588 251 576T218 563Q196 563 183 582T170 636Q170 656 178 683T198 737T225 781T251 799Z" />
<glyph unicode="&#x201d;" horiz-adv-x="273" d="M195 563Q176 563 163 575T150 612Q150 630 153 645T157 677T156 716T141 770Q137 782 144 790T162 799Q174 799 188 782T214 738T235 684T243 636Q243 601 230 582T195 563ZM55 563Q36 563 23 575T10 612Q10 630
13 645T17 677T16 716T1 770Q-3 782 4 790T22 799Q34 799 48 782T74 738T95 684T103 636Q103 601 90 582T55 563Z" />
<glyph unicode="&#x201e;" horiz-adv-x="254" d="M309 -149Q299 -149 292 -141T288 -120Q300 -88 303 -66T305 -27T300 5T297 38Q297 62 310 74T342 87Q364 87 377 68T390 14Q390 -6 382 -33T362 -87T335 -131T309 -149ZM173 -149Q163 -149 156 -141T152 -120Q164
-88 167 -66T169 -27T164 5T161 38Q161 62 174 74T206 87Q228 87 241 68T254 14Q254 -6 246 -33T226 -87T199 -131T173 -149Z" />
<glyph unicode="&#x2022;" horiz-adv-x="391" d="M193 284Q162 284 137 299T97 339T82 395Q82 426 97 451T137 491T193 506Q223 506 248 491T289 451T305 395Q305 365 290 340T250 300T193 284Z" />
<glyph unicode="&#x2039;" horiz-adv-x="273" d="M192 0Q182 0 176 4T164 19L45 256Q43 261 42 265T41 274Q41 281 44 288L164 527Q174 546 192 546Q205 546 214 538T223 516Q223 509 220 503L105 273L220 43Q223 39 223 30Q223 17 214 9T192 0Z" />
<glyph unicode="&#x203a;" horiz-adv-x="273" d="M71 0Q58 0 50 8T41 30Q41 37 43 43L158 273L43 503Q42 506 42 509T41 516Q41 529 49 537T71 546Q88 546 99 527L219 288Q221 284 222 281T223 273Q223 266 218 256L99 19Q94 9 88 5T71 0Z" />
</font>
</defs>
</svg>
